[MINI Super-HQ] The Woman in Black (2012) ชุดดำสัญญาณสยอง ภาค 1 [1080p] [พากย์ไทย 5.1 + เสียงอังกฤษ 5.1] [บรรยายไทย + อังกฤษ] [เสียงไทย + ซับไทย] [ONE2UP]

0

The Woman in Black (2012) ชุดดำสัญญาณสยอง ภาค 1

โหลดหนัง The Woman in Black (2012) ชุดดำสัญญาณสยอง ภาค 1

The Woman in Black (2012) 1h 35min | Drama, Fantasy, Horror | 23 February 2012 (Netherlands) Summary: A young solicitor travels to a remote village where he discovers the vengeful ghost of a scorned woman is terrorizing the locals.
Countries: UK, Canada, SwedenLanguages: English

เรื่องย่อ The Woman in Black (2012) ชุดดำสัญญาณสยอง ภาค 1

เมื่อทนายหนุ่ม อาเธอร์ คิปส์ เดินทางจากลอนดอนมายังหมู่บ้านเล็กๆ เพื่อจัดการแบ่งทรัพย์สินให้กับเจ้าของคฤหาสน์ อีล มาร์ช เขาก็ต้องค้นพบความลับอันน่าสะพรึงกลัว และโศกนาฏกรรมที่เคยเกิดขึ้นในหมู่บ้าน เมื่อพบว่ามีเด็กจำนวนมากเสียชีวิตอย่างปริศนาและความน่ากลัวก็คืบคลานเข้ามาเมื่อเขาถูกผู้หญิงปริศนาในชุดดำตามหลอกหลอน คิปส์ ต้องพยายามทำทุกอย่างเพื่อไขปริศนา และ หยุดยั้งวงจรแห่งความสยองนี้ให้ได้

Complete name : [MINI Super-HQ]_The.Woman.in.Black.2012.1080p.BrRip.AC3.x264.One2loadup.com.mkv
Format : Matroska
Format version : Version 4
File size : 3.25 GiB
Duration : 1 h 35 min
Overall bit rate : 4 879 kb/s
Movie name : [MINI Super-HQ]_The.Woman.in.Black.2012.1080p.BrRip.AC3.x264.One2loadup.com
Encoded date : UTC 2015-05-26 01:25:19
Writing application : mkvmerge v7.8.0 (‘River Man’) 32bit built on Mar 27 2015 16:18:02
Writing library : libebml v1.3.1 + libmatroska v1.4.2
Cover : Yes
Attachments : cover_land.png / cover.png

Video
ID : 1
Format : AVC
Format/Info : Advanced Video Codec
Format profile : [email protected]
Format settings : CABAC / 4 Ref Frames
Format settings, CABAC : Yes
Format settings, ReFrames : 4 frames
Codec ID : V_MPEG4/ISO/AVC
Duration : 1 h 35 min
Bit rate : 4 000 kb/s
Width : 1 918 pixels
Height : 1 080 pixels
Display aspect ratio : 16:9
Frame rate mode : Constant
Frame rate : 23.976 (24000/1001) FPS
Color space : YUV
Chroma subsampling : 4:2:0
Bit depth : 8 bits
Scan type : Progressive
Bits/(Pixel*Frame) : 0.081
Stream size : 2.59 GiB (80%)
Title : [MINI Super-HQ]_The.Woman.in.Black.2012.1080p.BrRip.AC3.x264.One2loadup.com
Writing library : x264 core 142 r2479 dd79a61
Encoding settings : cabac=1 / ref=1 / deblock=1:-1:-1 / analyse=0x3:0x113 / me=hex / subme=2 / psy=1 / psy_rd=1.00:0.15 / mixed_ref=0 / me_range=16 / chroma_me=1 / trellis=0 / 8x8dct=1 / cqm=0 / deadzone=21,11 / fast_pskip=1 / chroma_qp_offset=0 / threads=12 / lookahead_threads=4 / sliced_threads=0 / nr=0 / decimate=1 / interlaced=0 / bluray_compat=0 / constrained_intra=0 / bframes=3 / b_pyramid=2 / b_adapt=1 / b_bias=0 / direct=1 / weightb=1 / open_gop=0 / weightp=1 / keyint=240 / keyint_min=24 / scenecut=40 / intra_refresh=0 / rc_lookahead=10 / rc=abr / mbtree=1 / bitrate=4000 / ratetol=1.0 / qcomp=0.60 / qpmin=0 / qpmax=69 / qpstep=4 / ip_ratio=1.40 / aq=1:1.00
Language : English
Default : Yes
Forced : No
Color range : Limited
Color primaries : BT.709
Transfer characteristics : BT.709
Matrix coefficients : BT.709

Audio #1
ID : 2
Format : AC-3
Format/Info : Audio Coding 3
Commercial name : Dolby Digital
Codec ID : A_AC3
Duration : 1 h 35 min
Bit rate mode : Constant
Bit rate : 448 kb/s
Channel(s) : 6 channels
Channel layout : L R C LFE Ls Rs
Sampling rate : 48.0 kHz
Frame rate : 31.250 FPS (1536 SPF)
Bit depth : 16 bits
Compression mode : Lossy
Delay relative to video : -83 ms
Stream size : 305 MiB (9%)
Title : AC3 DVD MASTER
Language : Thai
Service kind : Complete Main
Default : Yes
Forced : Yes

Audio #2
ID : 3
Format : AC-3
Format/Info : Audio Coding 3
Commercial name : Dolby Digital
Codec ID : A_AC3
Duration : 1 h 35 min
Bit rate mode : Constant
Bit rate : 448 kb/s
Channel(s) : 6 channels
Channel layout : L R C LFE Ls Rs
Sampling rate : 48.0 kHz
Frame rate : 31.250 FPS (1536 SPF)
Bit depth : 16 bits
Compression mode : Lossy
Delay relative to video : -5 ms
Stream size : 305 MiB (9%)
Title : AC3
Language : English
Service kind : Complete Main
Default : No
Forced : No

Text #1
ID : 4
Format : VobSub
Codec ID : S_VOBSUB
Codec ID/Info : Picture based subtitle format used on DVDs
Title : 1080P TSA YELLOW
Language : Thai
Default : Yes
Forced : Yes

Text #2
ID : 5
Format : VobSub
Codec ID : S_VOBSUB
Codec ID/Info : Picture based subtitle format used on DVDs
Title : 1080P TSA
Language : Thai
Default : No
Forced : No

Text #3
ID : 6
Format : VobSub
Codec ID : S_VOBSUB
Codec ID/Info : Picture based subtitle format used on DVDs
Title : 1080P AS
Language : Thai
Default : No
Forced : No

Text #4
ID : 7
Format : VobSub
Codec ID : S_VOBSUB
Codec ID/Info : Picture based subtitle format used on DVDs
Title : 480P TSA
Language : Thai
Default : No
Forced : No

Text #5
ID : 8
Format : VobSub
Codec ID : S_VOBSUB
Codec ID/Info : Picture based subtitle format used on DVDs
Title : DVD MASTER
Language : English
Default : No
Forced : No

Text #6
ID : 9
Format : UTF-8
Codec ID : S_TEXT/UTF8
Codec ID/Info : UTF-8 Plain Text
Title : SRT OCR
Language : Thai
Default : No
Forced : No

Text #7
ID : 10
Format : PGS
Codec ID : S_HDMV/PGS
Codec ID/Info : Picture based subtitle format used on BDs/HD-DVDs
Title : TSA
Language : Thai
Default : No
Forced : No

Text #8
ID : 11
Format : PGS
Codec ID : S_HDMV/PGS
Codec ID/Info : Picture based subtitle format used on BDs/HD-DVDs
Title : AS
Language : Thai
Default : No
Forced : No

Menu
00:00:00.000 : en:00:00:00.000
00:06:54.414 : en:00:06:54.414
00:12:54.190 : en:00:12:54.190
00:17:36.764 : en:00:17:36.764
00:26:21.121 : en:00:26:21.121
00:30:03.343 : en:00:30:03.343
00:36:10.502 : en:00:36:10.502
00:39:58.438 : en:00:39:58.438
00:45:48.663 : en:00:45:48.663
00:51:59.325 : en:00:51:59.325
00:58:02.354 : en:00:58:02.354
01:03:25.677 : en:01:03:25.677
01:08:43.369 : en:01:08:43.369
01:12:49.031 : en:01:12:49.031
01:17:10.084 : en:01:17:10.084
01:25:58.403 : en:01:25:58.403

DOWNLOAD


PART01 |||| PART02 |||| PART03 |||| PART04

PART01 |||| PART02 |||| PART03 |||| PART04

PART01 |||| PART02 |||| PART03 |||| PART04

PART01 |||| PART02 |||| PART03 |||| PART04



Disable Comments
%d bloggers like this: