[MINI Super-HQ] The Sorcerer’s Apprentice (2010) ศึกอภินิหารพ่อมดถล่มโลก [1080p] [พากย์ไทย 5.1 + เสียงอังกฤษ 5.1] [บรรยายไทย + อังกฤษ] [เสียงไทย + ซับไทย] [OPENLOAD]

0

The Sorcerer's Apprentice (2010) ศึกอภินิหารพ่อมดถล่มโลก

โหลดหนัง The Sorcerer’s Apprentice (2010) ศึกอภินิหารพ่อมดถล่มโลก

Duell der Magier (2010) 1h 49min | Action, Adventure, Family | 2 September 2010 (Germany) Summary: Master sorcerer Balthazar Blake must find and train Merlin's descendant to defeat dark sorceress Morgana la Fée.
Countries: USALanguages: English, Cantonese, Ukrainian

เรื่องย่อ The Sorcerer’s Apprentice (2010) ศึกอภินิหารพ่อมดถล่มโลก

บัลธาซาร์ เบลค (นิโคลัส เคจ) เป็นพ่อมดแห่งแมนฮัตตันยุคปัจจุบัน ที่พยายามจะปกป้องเมืองแห่งนี้จากศัตรูคู่อาฆาตของเขา แม็กซิม ฮอร์วาธ (อัลเฟรด โมลินา) แต่บัลธาซาร์ไม่อาจทำงานนี้ได้ตามลำพัง เขาก็เลยเลือกเดฟ สตัทเลอร์ (เจย์ บารูเชล) เด็กหนุ่มที่ดูธรรมดาๆ แต่แอบซ่อนศักยภาพยิ่งใหญ่เอาไว้ ให้เป็นลูกศิษย์คอยช่วยเหลือเขา พ่อมดบัลธาซาร์ได้สอนบทเรียนเร่งรัดในเรื่องศาสตร์และศิลป์ของเวทมนตร์ให้กับลูกศิษย์ที่ไม่เต็มใจจะเรียนเอาซะเลยคนนี้ และทั้งคู่ก็ต้องรวมพลังกันเพื่อหยุดยั้งพลังอำนาจของจอมวายร้ายที่แข็งแกร่งที่สุดและโหดเหี้ยมที่สุดตลอดกาล ศึกอภินิหารพ่อมดถล่มโลก เดฟต้องดึงเอาความกล้าหาญทุกหยาดหยดเท่าที่เขามีเพื่อเอาชีวิตให้รอดจากการฝึกฝน ปกป้องเมืองแห่งนี้ และช่วยชีวิตหญิงคนรัก ในขณะที่เขาเรียนรู้เพื่อกลายเป็น “ศิษย์ของพ่อมด”!!

Complete name : [MINI Super-HQ]_The.Sorcerer’s.Apprentice.2010.1080p.BrRip.x264.AC3.One2loadup.com.mkv
Format : Matroska
Format version : Version 4
File size : 4.71 GiB
Duration : 1 h 49 min
Overall bit rate : 6 185 kb/s
Movie name : [MINI Super-HQ]_The.Sorcerer’s.Apprentice.2010.1080p.BrRip.x264.AC3.One2loadup.com
Encoded date : UTC 2015-03-05 06:42:05
Writing application : mkvmerge v7.6.0 (‘Garden of Dreams’) 32bit built on Feb 8 2015 12:51:39
Writing library : libebml v1.3.1 + libmatroska v1.4.2

Video
ID : 1
Format : AVC
Format/Info : Advanced Video Codec
Format profile : [email protected]
Format settings : CABAC / 4 Ref Frames
Format settings, CABAC : Yes
Format settings, ReFrames : 4 frames
Codec ID : V_MPEG4/ISO/AVC
Duration : 1 h 49 min
Bit rate : 5 398 kb/s
Width : 1 920 pixels
Height : 800 pixels
Display aspect ratio : 2.40:1
Frame rate mode : Constant
Frame rate : 23.976 (24000/1001) FPS
Color space : YUV
Chroma subsampling : 4:2:0
Bit depth : 8 bits
Scan type : Progressive
Bits/(Pixel*Frame) : 0.147
Stream size : 4.05 GiB (86%)
Title : [MINI Super-HQ]_The.Sorcerer’s.Apprentice.2010.1080p.BrRip.x264.AC3.One2loadup.com
Writing library : x264 core 92 r1510 33d382a
Encoding settings : cabac=1 / ref=4 / deblock=1:-3:-3 / analyse=0x3:0x113 / me=tesa / subme=10 / psy=1 / psy_rd=1.00:0.20 / mixed_ref=1 / me_range=32 / chroma_me=1 / trellis=2 / 8x8dct=1 / cqm=0 / deadzone=21,11 / fast_pskip=0 / chroma_qp_offset=-3 / threads=6 / sliced_threads=0 / nr=0 / decimate=0 / interlaced=0 / constrained_intra=0 / bframes=4 / b_pyramid=2 / b_adapt=2 / b_bias=0 / direct=1 / wpredb=1 / wpredp=2 / keyint=250 / keyint_min=25 / scenecut=40 / intra_refresh=0 / rc_lookahead=60 / rc=cbr / mbtree=1 / bitrate=5398 / ratetol=1.0 / qcomp=0.60 / qpmin=10 / qpmax=51 / qpstep=4 / vbv_maxrate=50000 / vbv_bufsize=50000 / ip_ratio=1.40 / aq=1:1.00 / nal_hrd=none
Language : English
Default : Yes
Forced : No

Audio #1
ID : 2
Format : AC-3
Format/Info : Audio Coding 3
Commercial name : Dolby Digital
Codec ID : A_AC3
Duration : 1 h 49 min
Bit rate mode : Constant
Bit rate : 448 kb/s
Channel(s) : 6 channels
Channel layout : L R C LFE Ls Rs
Sampling rate : 48.0 kHz
Frame rate : 31.250 FPS (1536 SPF)
Bit depth : 16 bits
Compression mode : Lossy
Stream size : 349 MiB (7%)
Title : English AC3 5.1 Ch
Language : English
Service kind : Complete Main
Default : No
Forced : No

Audio #2
ID : 3
Format : AC-3
Format/Info : Audio Coding 3
Commercial name : Dolby Digital
Codec ID : A_AC3
Duration : 1 h 49 min
Bit rate mode : Constant
Bit rate : 384 kb/s
Channel(s) : 6 channels
Channel layout : L R C LFE Ls Rs
Sampling rate : 48.0 kHz
Frame rate : 31.250 FPS (1536 SPF)
Bit depth : 16 bits
Compression mode : Lossy
Stream size : 299 MiB (6%)
Title : Thai AC3 5.1 Ch
Language : Thai
Service kind : Complete Main
Default : Yes
Forced : Yes

Text #1
ID : 4
Format : VobSub
Muxing mode : zlib
Codec ID : S_VOBSUB
Codec ID/Info : Picture based subtitle format used on DVDs
Duration : 1 h 41 min
Bit rate : 4 927 b/s
Count of elements : 1066
Stream size : 3.59 MiB (0%)
Title : Thai 1080p Sarabun
Language : Thai
Default : Yes
Forced : Yes

Text #2
ID : 5
Format : VobSub
Muxing mode : zlib
Codec ID : S_VOBSUB
Codec ID/Info : Picture based subtitle format used on DVDs
Duration : 1 h 41 min
Bit rate : 4 931 b/s
Count of elements : 1066
Stream size : 3.59 MiB (0%)
Title : Thai 1080p Angsana
Language : Thai
Default : No
Forced : No

Text #3
ID : 6
Format : VobSub
Muxing mode : zlib
Codec ID : S_VOBSUB
Codec ID/Info : Picture based subtitle format used on DVDs
Duration : 1 h 41 min
Bit rate : 2 546 b/s
Count of elements : 1066
Stream size : 1.85 MiB (0%)
Title : Thai 480p
Language : Thai
Default : No
Forced : No

Text #4
ID : 7
Format : PGS
Muxing mode : zlib
Codec ID : S_HDMV/PGS
Codec ID/Info : Picture based subtitle format used on BDs/HD-DVDs
Duration : 1 h 41 min
Bit rate : 13.5 kb/s
Count of elements : 2132
Stream size : 9.81 MiB (0%)
Title : Thai PGS Sarabun
Language : Thai
Default : No
Forced : No

Text #5
ID : 8
Format : PGS
Muxing mode : zlib
Codec ID : S_HDMV/PGS
Codec ID/Info : Picture based subtitle format used on BDs/HD-DVDs
Duration : 1 h 41 min
Bit rate : 13.6 kb/s
Count of elements : 2132
Stream size : 9.91 MiB (0%)
Title : Thai PGS Angsana
Language : Thai
Default : No
Forced : No

Text #6
ID : 9
Format : UTF-8
Codec ID : S_TEXT/UTF8
Codec ID/Info : UTF-8 Plain Text
Duration : 1 h 41 min
Bit rate : 110 b/s
Count of elements : 1067
Stream size : 82.8 KiB (0%)
Title : Thai SRT
Language : Thai
Default : No
Forced : No

Text #7
ID : 10
Format : UTF-8
Codec ID : S_TEXT/UTF8
Codec ID/Info : UTF-8 Plain Text
Duration : 1 h 41 min
Bit rate : 48 b/s
Count of elements : 1150
Stream size : 36.3 KiB (0%)
Title : English SRT
Language : English
Default : No
Forced : No

DOWNLOAD


PART01 |||| PART02 |||| PART03 |||| PART04 |||| PART05

PART01 |||| PART02 |||| PART03 |||| PART04 |||| PART05

PART01 |||| PART02 |||| PART03 |||| PART04 |||| PART05

PART01 |||| PART02 |||| PART03 |||| PART04 |||| PART05


Leave A Reply

Your email address will not be published.

%d bloggers like this: