โหลดหนัง HD MINI-HD SUPER-HQ Full-HD 1080p VIP Master Zoom ซูม หนังใหม่ ออนไลน์ มาสเตอร์ ไทย จีน ฝรั่ง การ์ตูน

[MINI Super-HQ] The Scorpion King 4: Quest for Power (2015) ศึกชิงอำนาจจอมราชันย์ ภาค 4 [1080p] [พากย์ไทย 5.1 + เสียงอังกฤษ DTS] [บรรยายไทย + อังกฤษ] [เสียงไทย + ซับไทย] [OPENLOAD]

โหลดหนัง  The Scorpion King 4: Quest for Power (2015) ศึกชิงอำนาจจอมราชันย์ ภาค 4

เรื่องย่อ The Scorpion King 4: Quest for Power (2015) ศึกชิงอำนาจจอมราชันย์ ภาค 4

เมื่อกษัตริย์แห่งนอร์วาเนียถูกลอบปลงพระชนม์ แมทเธย์อุส ราชันย์แมงป่องผู้เป็นตำนานถูกใส่ความว่าเป็นคนร้ายและต้องต่อสู้กับทัพทหารทั้งราชอาณาจักร เวลานี้ แมทเธย์อุส (วิคเตอร์ เว็บสเตอร์) และพันธมิตรที่เหลืออยู่ซึ่งมีเพียงสตรีลึกลับนางหนึ่งกับพ่อของเธอเท่านั้น ที่เป็นความหวังสุดท้ายในการหยุดรัชทายาทผู้ชั่วร้าย ที่จะขึ้นครองบัลลังก์และหมายครอบครองสุดยอดพลังวิเศษอันเก่าแก่มาเป็นของตนเอง !!!

Complete name : [MINI Super-HQ]_4.The.Scorpion.King.Quest.for.Power.1080p.BrRip.x264.DTS.One2loadup.com.mkv
Format : Matroska
Format version : Version 4
File size : 9.01 GiB
Duration : 1 h 44 min
Overall bit rate : 12.3 Mb/s
Movie name : [MINI Super-HQ]_4.The.Scorpion.King.Quest.for.Power.1080p.BrRip.x264.DTS.One2loadup.com
Encoded date : UTC 2016-07-10 10:47:43
Writing application : mkvmerge v8.2.0 (‘World of Adventure’) 64bit
Writing library : libebml v1.3.1 + libmatroska v1.4.2

Video
ID : 1
Format : AVC
Format/Info : Advanced Video Codec
Format profile : [email protected]
Format settings : CABAC / 4 Ref Frames
Format settings, CABAC : Yes
Format settings, ReFrames : 4 frames
Codec ID : V_MPEG4/ISO/AVC
Duration : 1 h 44 min
Bit rate : 8 933 kb/s
Width : 1 920 pixels
Height : 1 080 pixels
Display aspect ratio : 16:9
Frame rate mode : Constant
Frame rate : 23.976 FPS
Color space : YUV
Chroma subsampling : 4:2:0
Bit depth : 8 bits
Scan type : Progressive
Bits/(Pixel*Frame) : 0.180
Stream size : 6.54 GiB (73%)
Title : [MINI Super-HQ]_4.The.Scorpion.King.Quest.for.Power.1080p.BrRip.x264.DTS.One2loadup.com
Writing library : x264 core 142 r2479 dd79a61
Encoding settings : cabac=1 / ref=4 / deblock=1:0:0 / analyse=0x3:0x133 / me=umh / subme=7 / psy=1 / psy_rd=1.00:0.00 / mixed_ref=1 / me_range=16 / chroma_me=1 / trellis=1 / 8x8dct=1 / cqm=0 / deadzone=21,11 / fast_pskip=0 / chroma_qp_offset=-2 / threads=18 / lookahead_threads=3 / sliced_threads=0 / nr=0 / decimate=1 / interlaced=0 / bluray_compat=0 / constrained_intra=0 / bframes=3 / b_pyramid=2 / b_adapt=1 / b_bias=0 / direct=1 / weightb=1 / open_gop=0 / weightp=2 / keyint=250 / keyint_min=23 / scenecut=40 / intra_refresh=0 / rc_lookahead=40 / rc=2pass / mbtree=1 / bitrate=8933 / ratetol=1.0 / qcomp=0.60 / qpmin=0 / qpmax=69 / qpstep=4 / cplxblur=20.0 / qblur=0.5 / ip_ratio=1.40 / aq=1:1.00
Language : English
Default : Yes
Forced : No

Audio #1
ID : 2
Format : DTS
Format/Info : Digital Theater Systems
Codec ID : A_DTS
Duration : 1 h 44 min
Bit rate mode : Constant
Bit rate : 768 kb/s
Channel(s) : 6 channels
Channel layout : C L R Ls Rs LFE
Sampling rate : 48.0 kHz
Frame rate : 93.750 FPS (512 SPF)
Bit depth : 24 bits
Compression mode : Lossy
Stream size : 576 MiB (6%)
Title : Thai DTS
Language : Thai
Default : Yes
Forced : Yes

Audio #2
ID : 3
Format : DTS
Format/Info : Digital Theater Systems
Codec ID : A_DTS
Duration : 1 h 44 min
Bit rate mode : Constant
Bit rate : 1 509 kb/s
Channel(s) : 6 channels
Channel layout : C L R Ls Rs LFE
Sampling rate : 48.0 kHz
Frame rate : 93.750 FPS (512 SPF)
Bit depth : 24 bits
Compression mode : Lossy
Delay relative to video : 11 ms
Stream size : 1.11 GiB (12%)
Title : Eng DTS
Language : English
Default : No
Forced : No

Audio #3
ID : 4
Format : AC-3
Format/Info : Audio Coding 3
Commercial name : Dolby Digital
Codec ID : A_AC3
Duration : 1 h 44 min
Bit rate mode : Constant
Bit rate : 384 kb/s
Channel(s) : 6 channels
Channel layout : L R C LFE Ls Rs
Sampling rate : 48.0 kHz
Frame rate : 31.250 FPS (1536 SPF)
Bit depth : 16 bits
Compression mode : Lossy
Stream size : 288 MiB (3%)
Title : Thai AC-3
Language : Thai
Service kind : Complete Main
Default : No
Forced : No

Audio #4
ID : 5
Format : AC-3
Format/Info : Audio Coding 3
Commercial name : Dolby Digital
Codec ID : A_AC3
Duration : 1 h 44 min
Bit rate mode : Constant
Bit rate : 448 kb/s
Channel(s) : 6 channels
Channel layout : L R C LFE Ls Rs
Sampling rate : 48.0 kHz
Frame rate : 31.250 FPS (1536 SPF)
Bit depth : 16 bits
Compression mode : Lossy
Stream size : 336 MiB (4%)
Title : Eng AC-3
Language : English
Service kind : Complete Main
Default : No
Forced : No

Audio #5
ID : 6
Format : AC-3
Format/Info : Audio Coding 3
Commercial name : Dolby Digital
Codec ID : A_AC3
Duration : 1 h 44 min
Bit rate mode : Constant
Bit rate : 192 kb/s
Channel(s) : 2 channels
Channel layout : L R
Sampling rate : 48.0 kHz
Frame rate : 31.250 FPS (1536 SPF)
Bit depth : 16 bits
Compression mode : Lossy
Stream size : 144 MiB (2%)
Title : Eng Commentary
Language : English
Service kind : Complete Main
Default : No
Forced : No

Text #1
ID : 7
Format : VobSub
Muxing mode : zlib
Codec ID : S_VOBSUB
Codec ID/Info : Picture based subtitle format used on DVDs
Duration : 1 h 43 min
Bit rate : 3 612 b/s
Count of elements : 1189
Stream size : 2.69 MiB (0%)
Title : Thai
Language : Thai
Default : No
Forced : No

Text #2
ID : 8
Format : VobSub
Muxing mode : zlib
Codec ID : S_VOBSUB
Codec ID/Info : Picture based subtitle format used on DVDs
Duration : 1 h 44 min
Bit rate : 4 754 b/s
Count of elements : 1205
Stream size : 3.55 MiB (0%)
Title : Thai YELLOW
Language : Thai
Default : No
Forced : No

Text #3
ID : 9
Format : VobSub
Muxing mode : zlib
Codec ID : S_VOBSUB
Codec ID/Info : Picture based subtitle format used on DVDs
Duration : 1 h 43 min
Bit rate : 4 712 b/s
Count of elements : 1189
Stream size : 3.51 MiB (0%)
Title : Thai Out
Language : Thai
Default : No
Forced : No

Text #4
ID : 10
Format : VobSub
Muxing mode : zlib
Codec ID : S_VOBSUB
Codec ID/Info : Picture based subtitle format used on DVDs
Duration : 1 h 43 min
Bit rate : 5 249 b/s
Count of elements : 1189
Stream size : 3.90 MiB (0%)
Title : Thai BIG
Language : Thai
Default : No
Forced : No

Text #5
ID : 11
Format : PGS
Muxing mode : zlib
Codec ID : S_HDMV/PGS
Codec ID/Info : Picture based subtitle format used on BDs/HD-DVDs
Duration : 1 h 43 min
Bit rate : 7 202 b/s
Count of elements : 2378
Stream size : 5.36 MiB (0%)
Title : Thai PGS
Language : Thai
Default : No
Forced : No

Text #6
ID : 12
Format : PGS
Muxing mode : zlib
Codec ID : S_HDMV/PGS
Codec ID/Info : Picture based subtitle format used on BDs/HD-DVDs
Duration : 1 h 43 min
Bit rate : 16.9 kb/s
Count of elements : 2378
Stream size : 12.6 MiB (0%)
Title : Thai PGS Out
Language : Thai
Default : No
Forced : No

Text #7
ID : 13
Format : VobSub
Muxing mode : zlib
Codec ID : S_VOBSUB
Codec ID/Info : Picture based subtitle format used on DVDs
Duration : 1 h 41 min
Bit rate : 5 118 b/s
Count of elements : 1376
Stream size : 3.72 MiB (0%)
Title : Eng
Language : English
Default : No
Forced : No

Text #8
ID : 14
Format : PGS
Muxing mode : zlib
Codec ID : S_HDMV/PGS
Codec ID/Info : Picture based subtitle format used on BDs/HD-DVDs
Duration : 1 h 41 min
Bit rate : 10.5 kb/s
Count of elements : 2752
Stream size : 7.63 MiB (0%)
Title : Eng PGS
Language : English
Default : No
Forced : No

Text #9
ID : 15
Format : UTF-8
Codec ID : S_TEXT/UTF8
Codec ID/Info : UTF-8 Plain Text
Duration : 1 h 41 min
Bit rate : 50 b/s
Count of elements : 1372
Stream size : 37.6 KiB (0%)
Title : Eng SRT
Language : English
Default : No
Forced : No

Text #10
ID : 16
Format : VobSub
Muxing mode : zlib
Codec ID : S_VOBSUB
Codec ID/Info : Picture based subtitle format used on DVDs
Duration : 1 h 44 min
Bit rate : 9 695 b/s
Count of elements : 1993
Stream size : 7.26 MiB (0%)
Title : Eng Commentary
Language : English
Default : No
Forced : No

Text #11
ID : 17
Format : UTF-8
Codec ID : S_TEXT/UTF8
Codec ID/Info : UTF-8 Plain Text
Duration : 1 h 41 min
Bit rate : 43 b/s
Count of elements : 1182
Stream size : 32.7 KiB (0%)
Title : Italian
Language : Italian
Default : No
Forced : No

Text #12
ID : 18
Format : UTF-8
Codec ID : S_TEXT/UTF8
Codec ID/Info : UTF-8 Plain Text
Duration : 1 h 41 min
Bit rate : 48 b/s
Count of elements : 1185
Stream size : 36.0 KiB (0%)
Title : French
Language : French
Default : No
Forced : No

Menu #1
00:00:00.000 : en:00:00:00.000
00:07:39.000 : en:00:07:39.000
00:10:13.154 : en:00:10:13.154
00:13:22.218 : en:00:13:22.218
00:21:03.888 : en:00:21:03.888
00:26:13.238 : en:00:26:13.238
00:29:55.585 : en:00:29:55.585
00:34:36.157 : en:00:34:36.157
00:40:55.244 : en:00:40:55.244
00:45:06.495 : en:00:45:06.495
00:52:01.994 : en:00:52:01.994
00:58:16.243 : en:00:58:16.243
01:05:12.992 : en:01:05:12.992
01:09:17.236 : en:01:09:17.236
01:14:57.535 : en:01:14:57.535
01:19:55.708 : en:01:19:55.708
01:25:27.289 : en:01:25:27.289
01:30:08.528 : en:01:30:08.528
01:35:47.575 : en:01:35:47.575
01:39:42.018 : en:01:39:42.018

Menu #2
00:00:00.000 : en:Chapter 1
00:07:39.083 : en:Chapter 2
00:10:13.321 : en:Chapter 3
00:13:22.301 : en:Chapter 4
00:21:03.971 : en:Chapter 5
00:26:13.321 : en:Chapter 6
00:29:55.668 : en:Chapter 7
00:34:36.240 : en:Chapter 8
00:40:55.327 : en:Chapter 9
00:45:06.578 : en:Chapter 10
00:52:02.077 : en:Chapter 11
00:58:16.326 : en:Chapter 12
01:05:13.075 : en:Chapter 13
01:09:17.361 : en:Chapter 14
01:14:57.618 : en:Chapter 15
01:19:55.874 : en:Chapter 16
01:25:27.372 : en:Chapter 17
01:30:08.653 : en:Chapter 18
01:35:47.658 : en:Chapter 19
01:39:42.101 : en:Chapter 20

DOWNLOAD


PART01 |||| PART02 |||| PART03 |||| PART04 |||| PART05

PART01 |||| PART02 |||| PART03 |||| PART04 |||| PART05

PART01 |||| PART02 |||| PART03 |||| PART04 |||| PART05

PART01 |||| PART02 |||| PART03 |||| PART04 |||| PART05


Leave A Reply

Your email address will not be published.

%d bloggers like this: