โหลดหนัง HD MINI-HD SUPER-HQ Full-HD 1080p VIP Master Zoom ซูม หนังใหม่ ออนไลน์ มาสเตอร์ ไทย จีน ฝรั่ง การ์ตูน

[MINI Super-HQ] The Scorpion King (2002) ศึกราชันย์ แผ่นดินเดือด ภาค 1 [1080p] [พากย์ไทย 5.1 + เสียงอังกฤษ DTS] [บรรยายไทย + อังกฤษ] [เสียงไทย + ซับไทย] [OPENLOAD]

The Scorpion King (2002) ศึกราชันย์ แผ่นดินเดือด ภาค 1

โหลดหนัง The Scorpion King (2002) ศึกราชันย์ แผ่นดินเดือด ภาค 1

เรื่องย่อ The Scorpion King (2002) ศึกราชันย์ แผ่นดินเดือด ภาค 1

ห้าพันปีก่อนชายผู้ทะเยอทะยานและไร้ความปรานี นามว่า เมมนอน (รับบทโดย สตีเวน แบรนด์) เชื่อว่าเขาถูกกำหนดให้มาปกครองผู้คนที่กระจัดกระจายอยู่ในทะเลทรายเขาพร้อมด้วยกองทัพที่โหดร้ายทารุณบุกไปทั่วทั้งภูเขาและที่ราบสังหารผู้คน และนำคนที่เหลือมาเป็นทาส เขาต่อสู้อย่างไร้ความปรานี กับใครก็ตามที่ต่อต้านเขาด้วยรู้ตัวเองว่ามีศัตรูอยู่มากมาย แผนการณ์ต่างๆ ของเมมนอนได้รับคำแนะนำจากผู้พยากรณ์คนหนึ่ง ซึ่งจะคอยบอกว่าเมื่อใดที่ไหนและจะโจมตีอย่างไรทำให้เขาไม่เคยพ่ายแพ้เลย มีเพียงชนไม่กี่เผ่าเท่านั้นที่ไม่ยอมสยบ และยังขัดขวางเมมนอนไม่ให้ครองบัลลังก์แต่ก็รู้ดีว่าในที่สุดต้องเผชิญหน้ากับเมมนอนจึงได้ว่าจ้าง มาธายุส (รับบทโดย เดอะร็อค) ชายผู้สืบเชื้อสายจากนักรบผู้สามารถเพื่อกำจัดผู้พยากรณ์ และขัดขวางเมมนอนไม่ให้ได้ครองบังลังก์ตามต้องการ !!!

Complete name : [MINI Super-HQ]_1.The.Scorpion.King.2002.1080p.BrRip.DTS.x264.One2loadup.com.mkv
Format : Matroska
Format version : Version 4
File size : 8.42 GiB
Duration : 1 h 31 min
Overall bit rate : 13.2 Mb/s
Movie name : [MINI Super-HQ]_1.The.Scorpion.King.2002.1080p.BrRip.DTS.x264.One2loadup.com
Encoded date : UTC 2016-07-09 04:48:48
Writing application : mkvmerge v8.2.0 (‘World of Adventure’) 64bit
Writing library : libebml v1.3.1 + libmatroska v1.4.2

Video
ID : 1
Format : AVC
Format/Info : Advanced Video Codec
Format profile : [email protected]
Format settings : CABAC / 5 Ref Frames
Format settings, CABAC : Yes
Format settings, ReFrames : 5 frames
Codec ID : V_MPEG4/ISO/AVC
Duration : 1 h 31 min
Bit rate : 10.9 Mb/s
Width : 1 920 pixels
Height : 816 pixels
Display aspect ratio : 2.35:1
Frame rate mode : Constant
Frame rate : 23.976 FPS
Color space : YUV
Chroma subsampling : 4:2:0
Bit depth : 8 bits
Scan type : Progressive
Bits/(Pixel*Frame) : 0.291
Stream size : 6.98 GiB (83%)
Title : [MINI Super-HQ]_1.The.Scorpion.King.2002.1080p.BrRip.DTS.x264.One2loadup.com
Writing library : x264 core 60 r901M 58d7d06
Encoding settings : cabac=1 / ref=5 / deblock=1:-1:-1 / analyse=0x3:0x133 / me=umh / subme=6 / rdcmp=psy / brdo=1 / mixed_ref=1 / me_range=16 / chroma_me=1 / trellis=1 / 8x8dct=1 / cqm=1 / deadzone=21,11 / chroma_qp_offset=0 / threads=8 / nr=0 / decimate=1 / mbaff=0 / bframes=3 / b_pyramid=1 / b_adapt=1 / b_bias=0 / direct=3 / wpredb=1 / bime=1 / keyint=240 / keyint_min=24 / scenecut=40(pre) / rc=2pass / bitrate=10923 / ratetol=1.0 / rceq=’blurCplx^(1-qComp)’ / qcomp=1.00 / qpmin=10 / qpmax=51 / qpstep=4 / cplxblur=20.0 / qblur=0.5 / ip_ratio=1.40 / pb_ratio=1.30 / aq=2:1.00
Language : English
Default : Yes
Forced : No

Audio #1
ID : 2
Format : AC-3
Format/Info : Audio Coding 3
Commercial name : Dolby Digital
Codec ID : A_AC3
Duration : 1 h 31 min
Bit rate mode : Constant
Bit rate : 384 kb/s
Channel(s) : 6 channels
Channel layout : L R C LFE Ls Rs
Sampling rate : 48.0 kHz
Frame rate : 31.250 FPS (1536 SPF)
Bit depth : 16 bits
Compression mode : Lossy
Stream size : 251 MiB (3%)
Title : Thai AC-3
Language : Thai
Service kind : Complete Main
Default : Yes
Forced : Yes

Audio #2
ID : 3
Format : DTS
Format/Info : Digital Theater Systems
Codec ID : A_DTS
Duration : 1 h 31 min
Bit rate mode : Constant
Bit rate : 1 509 kb/s
Channel(s) : 6 channels
Channel layout : C L R Ls Rs LFE
Sampling rate : 48.0 kHz
Frame rate : 93.750 FPS (512 SPF)
Bit depth : 24 bits
Compression mode : Lossy
Stream size : 987 MiB (11%)
Title : Eng DTS
Language : English
Default : No
Forced : No

Audio #3
ID : 4
Format : AAC Main
Format/Info : Advanced Audio Codec
Codec ID : A_AAC-1
Duration : 1 h 31 min
Bit rate : 125 kb/s
Channel(s) : 2 channels
Channel layout : L R
Sampling rate : 44.1 kHz
Frame rate : 43.066 FPS (1024 SPF)
Compression mode : Lossy
Stream size : 81.9 MiB (1%)
Title : Eng AAC
Language : English
Default : No
Forced : No

Audio #4
ID : 5
Format : AC-3
Format/Info : Audio Coding 3
Commercial name : Dolby Digital
Codec ID : A_AC3
Duration : 1 h 31 min
Bit rate mode : Constant
Bit rate : 192 kb/s
Channel(s) : 2 channels
Channel layout : L R
Sampling rate : 48.0 kHz
Frame rate : 31.250 FPS (1536 SPF)
Bit depth : 16 bits
Compression mode : Lossy
Stream size : 126 MiB (1%)
Title : Eng Commentary
Language : English
Service kind : Complete Main
Default : No
Forced : No

Text #1
ID : 6
Format : PGS
Muxing mode : zlib
Codec ID : S_HDMV/PGS
Codec ID/Info : Picture based subtitle format used on BDs/HD-DVDs
Duration : 1 h 23 min
Bit rate : 10.5 kb/s
Count of elements : 1220
Stream size : 6.24 MiB (0%)
Title : Thai PGS
Language : Thai
Default : No
Forced : No

Text #2
ID : 7
Format : PGS
Muxing mode : zlib
Codec ID : S_HDMV/PGS
Codec ID/Info : Picture based subtitle format used on BDs/HD-DVDs
Duration : 1 h 23 min
Bit rate : 10.7 kb/s
Count of elements : 1220
Stream size : 6.39 MiB (0%)
Title : Thai PGS Yellow
Language : Thai
Default : No
Forced : No

Text #3
ID : 8
Format : PGS
Muxing mode : zlib
Codec ID : S_HDMV/PGS
Codec ID/Info : Picture based subtitle format used on BDs/HD-DVDs
Duration : 1 h 23 min
Bit rate : 10.3 kb/s
Count of elements : 1220
Stream size : 6.17 MiB (0%)
Title : Thai
Language : Thai
Default : No
Forced : No

Text #4
ID : 9
Format : PGS
Muxing mode : zlib
Codec ID : S_HDMV/PGS
Codec ID/Info : Picture based subtitle format used on BDs/HD-DVDs
Duration : 1 h 23 min
Bit rate : 10.7 kb/s
Count of elements : 1232
Stream size : 6.38 MiB (0%)
Title : Eng PGS
Language : English
Default : No
Forced : No

Text #5
ID : 10
Format : UTF-8
Codec ID : S_TEXT/UTF8
Codec ID/Info : UTF-8 Plain Text
Duration : 1 h 23 min
Bit rate : 25 b/s
Count of elements : 514
Stream size : 15.5 KiB (0%)
Title : Latin
Language : Latin
Default : No
Forced : No

DOWNLOAD


PART01 |||| PART02 |||| PART03 |||| PART04 |||| PART05

PART01 |||| PART02 |||| PART03 |||| PART04 |||| PART05

PART01 |||| PART02 |||| PART03 |||| PART04 |||| PART05

PART01 |||| PART02 |||| PART03 |||| PART04 |||| PART05


Leave A Reply

Your email address will not be published.

%d bloggers like this: