[MINI Super-HQ] The Quick and the Dead (1995) เพลิงเจ็บกระหน่ำแหลก [1080p] [พากย์ไทย 5.1 + เสียงอังกฤษ 5.1] [บรรยายไทย + อังกฤษ] [เสียงไทย + ซับไทย] [OPENLOAD]

0

The Quick and the Dead (1995)

โหลดหนัง The Quick and the Dead (1995) เพลิงเจ็บกระหน่ำแหลก

The Quick and the Dead (1995) 1h 47min | Action, Romance, Thriller | 6 July 1995 (Netherlands) Summary: A female gunfighter returns to a frontier town where a dueling tournament is being held, which she enters in an effort to avenge her father's death.
Countries: Japan, USALanguages: English, Spanish

เรื่องย่อ The Quick and the Dead (1995) เพลิงเจ็บกระหน่ำแหลก

หนังเล่าเรื่องราวของคาวเกิร์ลสาวนิรนามที่ควบม้าเข้ามายังเมือง Redemtion พร้อมปืนลูกโม่ข้างกายกับเพลิงแค้นที่โหมกระหน่ำสุมอก เธอมาเพื่อสังหารคนๆหนึ่ง แต่ความตั้งใจจะเป็นจริงได้นั้น เธอต้องเข้าร่วมแข่งดวลปืนแบบตัวต่อตัวที่ใครไวกว่าเป็นผู้คว้าเงินรางวัล ส่วนผู้แพ้ก็มีโลงศพไว้ปลอบใจ……

Complete name : [MINI Super-HQ]_The.Quick.and.the.Dead.1995.1080p.AC3.One2loadup.com.mkv
Format : Matroska
Format version : Version 4 / Version 2
File size : 3.61 GiB
Duration : 1 h 47 min
Overall bit rate : 4 797 kb/s
Encoded date : UTC 2016-06-14 22:13:43
Writing application : mkvmerge v9.2.0 (‘Photograph’) 64bit
Writing library : libebml v1.3.3 + libmatroska v1.4.4

Video
ID : 1
Format : AVC
Format/Info : Advanced Video Codec
Format profile : [email protected]
Format settings : CABAC / 1 Ref Frames
Format settings, CABAC : Yes
Format settings, ReFrames : 1 frame
Format settings, GOP : M=1, N=12
Codec ID : V_MPEG4/ISO/AVC
Duration : 1 h 47 min
Bit rate : 3 488 kb/s
Width : 1 920 pixels
Height : 1 080 pixels
Display aspect ratio : 16:9
Frame rate mode : Constant
Frame rate : 23.976 (24000/1001) FPS
Standard : Component
Color space : RGB
Chroma subsampling : 4:2:0
Bit depth : 8 bits
Scan type : Progressive
Bits/(Pixel*Frame) : 0.070
Stream size : 2.63 GiB (73%)
Default : Yes
Forced : No
Color range : Limited
Matrix coefficients : Identity

Audio #1
ID : 2
Format : AC-3
Format/Info : Audio Coding 3
Codec ID : A_AC3
Duration : 1 h 47 min
Bit rate mode : Constant
Bit rate : 640 kb/s
Channel(s) : 6 channels
Channel positions : Front: L C R, Side: L R, LFE
Sampling rate : 48.0 kHz
Frame rate : 31.250 FPS (1536 SPF)
Bit depth : 16 bits
Compression mode : Lossy
Stream size : 493 MiB (13%)
Title : English AC3 5.1 From BluRay Master
Language : English
Service kind : Complete Main
Default : Yes
Forced : No

Audio #2
ID : 3
Format : AC-3
Format/Info : Audio Coding 3
Codec ID : A_AC3
Duration : 1 h 47 min
Bit rate mode : Constant
Bit rate : 640 kb/s
Channel(s) : 6 channels
Channel positions : Front: L C R, Side: L R, LFE
Sampling rate : 48.0 kHz
Frame rate : 31.250 FPS (1536 SPF)
Bit depth : 16 bits
Compression mode : Lossy
Stream size : 493 MiB (13%)
Title : Thai AC3 5.1 From BluRay Master
Language : Thai
Service kind : Complete Main
Default : No
Forced : Yes

Text #1
ID : 4
Format : PGS
Muxing mode : zlib
Codec ID : S_HDMV/PGS
Codec ID/Info : Picture based subtitle format used on BDs/HD-DVDs
Duration : 1 h 42 min
Bit rate : 9 236 b/s
Count of elements : 1766
Stream size : 6.75 MiB (0%)
Title : SubEnglish From BluRay Master
Language : English
Default : Yes
Forced : No

Text #2
ID : 5
Format : PGS
Muxing mode : zlib
Codec ID : S_HDMV/PGS
Codec ID/Info : Picture based subtitle format used on BDs/HD-DVDs
Duration : 1 h 42 min
Bit rate : 9 592 b/s
Count of elements : 1802
Stream size : 7.01 MiB (0%)
Title : SubThai From BluRay Master
Language : Thai
Default : No
Forced : Yes

DOWNLOAD


PART01 |||| PART02 |||| PART03 |||| PART04

PART01 |||| PART02 |||| PART03 |||| PART04

PART01 |||| PART02 |||| PART03 |||| PART04

PART01 |||| PART02 |||| PART03 |||| PART04


Leave A Reply

Your email address will not be published.

%d bloggers like this: