โหลดหนัง HD MINI-HD SUPER-HQ Full-HD 1080p VIP Master Zoom ซูม หนังใหม่ ออนไลน์ มาสเตอร์ ไทย จีน ฝรั่ง การ์ตูน

[MINI Super-HQ] The Possession (2012) มันอยู่ในร่างคน [1080p] [พากย์ไทย 5.1 + เสียงอังกฤษ DTS] [บรรยายไทย + อังกฤษ] [เสียงไทย + ซับไทย] [ONE2UP]

The Possession (2012) มันอยู่ในร่างคน

โหลดหนัง  The Possession (2012) มันอยู่ในร่างคน

เรื่องย่อ The Possession (2012) มันอยู่ในร่างคน

หนังสยองขวัญที่ได้รับการกล่าวขานว่า น่ากลัวที่สุดในปีนี้ พร้อมเรื่องสยองมากมายที่เกิดขึ้นระหว่างการถ่ายทำผลงานจากสุดยอดผู้กำกับ แซม ไรมี่ ที่รับประกันความสยองมาแล้วใน Drag Me to Hell, The Grudge และ The Evil Dead ครั้งนี้เขากลับมาพร้อมกับเรื่องราวที่ได้แรงบันดาลใจจากตำนานเล่าขานในอดีตของกล่องไม้ปริศนาที่กักขังดวงวิญญาณชั่วร้ายที่สุดเอาไว้ The Possession เป็นเรื่องของ เอ็ม (นาตาชา คาลิส) วัยรุ่นสาวซื้อกล่องไม้โบราณมาจากร้านขายของเก่า แต่มันกลับทำให้เธอมีพฤติกรรมแปลกประหลาดจนทำให้พ่อ (เจฟฟรี่ย์ ดีน มอร์แกน) และแม่ (เคียร่า เซ็ตวิก) ต้องร่วมมือกันเพื่อค้นหาความจริง และพบว่าแท้จริงแล้วกล่องไม้ชิ้นนี้ใช้เพื่อกักขัง “ดิ๊บบัค” วิญญาณร้ายที่เข้าสิงร่างมนุษย์ และกัดกินดวงวิญญาณของผู้ใดก็ตามครอบครอง

Complete name :  [MINI Super-HQ]_The.Possession.2012.1080p.BrRip.DTS.x264.One2loadup.com.mkv
Format : Matroska
Format version : Version 4
File size : 3.65 GiB
Duration : 1 h 32 min
Overall bit rate : 5 662 kb/s
Movie name : [MINI Super-HQ]_The.Possession.2012.1080p.BrRip.DTS.x264.One2loadup.com
Encoded date : UTC 2018-10-01 07:31:56 / UTC 2018-10-01T05:09:42Z
Writing application : mkvmerge v8.3.0 (‘Over the Horizon’) 64bit
Writing library : libebml v1.3.1 + libmatroska v1.4.2 / Lavf55.12.0

Video
ID : 1
Format : AVC
Format/Info : Advanced Video Codec
Format profile : [email protected]
Format settings : CABAC / 4 Ref Frames
Format settings, CABAC : Yes
Format settings, ReFrames : 4 frames
Codec ID : V_MPEG4/ISO/AVC
Duration : 1 h 32 min
Bit rate : 3 592 kb/s
Width : 1 920 pixels
Height : 796 pixels
Display aspect ratio : 2.40:1
Frame rate mode : Constant
Frame rate : 23.976 (24000/1001) FPS
Color space : YUV
Chroma subsampling : 4:2:0
Bit depth : 8 bits
Scan type : Progressive
Bits/(Pixel*Frame) : 0.098
Stream size : 2.31 GiB (63%)
Title : [MINI Super-HQ]_The.Possession.2012.1080p.BrRip.DTS.x264.One2loadup.com
Writing library : x264 core 142 r2479 dd79a61
Encoding settings : cabac=1 / ref=1 / deblock=1:0:0 / analyse=0x1:0x111 / me=hex / subme=2 / psy=1 / psy_rd=1.00:0.00 / mixed_ref=0 / me_range=16 / chroma_me=1 / trellis=0 / 8x8dct=0 / cqm=0 / deadzone=21,11 / fast_pskip=1 / chroma_qp_offset=0 / threads=6 / lookahead_threads=2 / sliced_threads=0 / nr=0 / decimate=1 / interlaced=0 / bluray_compat=0 / constrained_intra=0 / bframes=3 / b_pyramid=2 / b_adapt=1 / b_bias=0 / direct=1 / weightb=1 / open_gop=0 / weightp=1 / keyint=240 / keyint_min=24 / scenecut=40 / intra_refresh=0 / rc_lookahead=10 / rc=crf / mbtree=1 / crf=22.0 / qcomp=0.60 / qpmin=0 / qpmax=69 / qpstep=4 / vbv_maxrate=20000 / vbv_bufsize=25000 / crf_max=0.0 / nal_hrd=none / filler=0 / ip_ratio=1.40 / aq=1:1.00
Language : Thai
Default : Yes
Forced : Yes
Color range : Limited
Color primaries : BT.709
Transfer characteristics : BT.709
Matrix coefficients : BT.709

Audio #1
ID : 2
Format : DTS
Format/Info : Digital Theater Systems
Codec ID : A_DTS
Duration : 1 h 32 min
Bit rate mode : Constant
Bit rate : 1 509 kb/s
Channel(s) : 6 channels
Channel layout : C L R Ls Rs LFE
Sampling rate : 48.0 kHz
Frame rate : 93.750 FPS (512 SPF)
Bit depth : 24 bits
Compression mode : Lossy
Stream size : 995 MiB (27%)
Title : Surround
Language : English
Default : No
Forced : No

Audio #2
ID : 3
Format : AC-3
Format/Info : Audio Coding 3
Commercial name : Dolby Digital
Codec ID : A_AC3
Duration : 1 h 32 min
Bit rate mode : Constant
Bit rate : 448 kb/s
Channel(s) : 6 channels
Channel layout : L R C LFE Ls Rs
Sampling rate : 48.0 kHz
Frame rate : 31.250 FPS (1536 SPF)
Bit depth : 16 bits
Compression mode : Lossy
Stream size : 296 MiB (8%)
Title : Surround
Language : Thai
Service kind : Complete Main
Default : Yes
Forced : Yes

Text #1
ID : 4
Format : PGS
Muxing mode : zlib
Codec ID : S_HDMV/PGS
Codec ID/Info : Picture based subtitle format used on BDs/HD-DVDs
Language : English
Default : No
Forced : No

Text #2
ID : 5
Format : PGS
Muxing mode : zlib
Codec ID : S_HDMV/PGS
Codec ID/Info : Picture based subtitle format used on BDs/HD-DVDs
Language : English
Default : No
Forced : No

Text #3
ID : 6
Format : PGS
Muxing mode : zlib
Codec ID : S_HDMV/PGS
Codec ID/Info : Picture based subtitle format used on BDs/HD-DVDs
Language : Thai
Default : No
Forced : Yes

Text #4
ID : 7
Format : PGS
Muxing mode : zlib
Codec ID : S_HDMV/PGS
Codec ID/Info : Picture based subtitle format used on BDs/HD-DVDs
Language : Thai
Default : Yes
Forced : Yes

Menu
00:00:00.000 : :Chapter 1
00:03:36.483 : :Chapter 2
00:08:00.414 : :Chapter 3
00:11:01.678 : :Chapter 4
00:13:24.821 : :Chapter 5
00:16:56.866 : :Chapter 6
00:20:51.351 : :Chapter 7
00:25:04.896 : :Chapter 8
00:30:09.325 : :Chapter 9
00:35:03.160 : :Chapter 10
00:39:05.944 : :Chapter 11
00:43:04.641 : :Chapter 12
00:46:16.916 : :Chapter 13
00:50:02.558 : :Chapter 14
00:52:48.140 : :Chapter 15
00:55:26.674 : :Chapter 16
00:57:10.027 : :Chapter 17
01:01:59.233 : :Chapter 18
01:05:47.669 : :Chapter 19
01:08:22.199 : :Chapter 20
01:12:05.505 : :Chapter 21
01:17:08.015 : :Chapter 22
01:24:02.012 : :Chapter 23
01:26:42.339 : :Chapter 24

DOWNLOAD


PART01 |||| PART02 |||| PART03 |||| PART04

PART01 |||| PART02 |||| PART03 |||| PART04

PART01 |||| PART02 |||| PART03 |||| PART04

PART01 |||| PART02 |||| PART03 |||| PART04


Leave A Reply

Your email address will not be published.

%d bloggers like this: