[MINI Super-HQ] The Hangover (2009) แฮงค์โอเวอร์ เมายกแก๊ง แฮงค์ยกก๊วน ภาค 1 [1080p] [พากย์ไทย 5.1 + เสียงอังกฤษ DTS] [บรรยายไทย + อังกฤษ] [เสียงไทย + ซับไทย] [ONE2UP]

3

โหลดหนัง The Hangover (2009) แฮงค์โอเวอร์ เมายกแก๊ง แฮงค์ยกก๊วน ภาค 1

The Hangover (2009) 1h 40min | Comedy | 11 June 2009 (Netherlands) Summary: Three buddies wake up from a bachelor party in Las Vegas, with no memory of the previous night and the bachelor missing. They make their way around the city in order to find their friend before his wedding.
Countries: USA, GermanyLanguages: English

เรื่องย่อ The Hangover (2009) แฮงค์โอเวอร์ เมายกแก๊ง แฮงค์ยกก๊วน ภาค 1

หนังคอเมดี้ของผู้กำกับ Todd Phillips เจ้าของผลงานสุดฮาอย่าง Road Trip, Old School และ Starsky & Hutch เล่าเรื่องราวของสามหนุ่ม ที่พาเพื่อนว่าที่เจ้าบ่าวมาฉลองสละโสดที่ลาสเวกัส แต่ต้องมาผจญกรรมอย่างคาดไม่ถึง เมื่อตื่นเช้าขึ้นมาพวกเขากลับจำอะไรไม่ได้เลย แถมเจ้าบ่าวยังหายตัวไปซะเฉยๆ ซ้ำร้ายยังต้องมาเจอเด็กทารกและเสือตัวโคร่งที่เข้ามาอยู่ในห้องพักแบบไม่รู้ที่มาที่ไป เรื่องวุ่นๆ ทั้งหลายจึงเกิดขึ้น เมื่อพวกเขาต้องออกไปช่วยกันสืบหาเพื่อพาเจ้าบ่าวกลับไปร่วมพิธีวิวาห์ให้ทันเวลา

Complete name : [MINI Super-HQ]_1.The.Hangover.2009.UNRATED.1080p.BrRip.DTS.x264.One2loadup.com.mkv
Format : Matroska
Format version : Version 4
File size : 4.68 GiB
Duration : 1 h 47 min
Overall bit rate : 6 204 kb/s
Movie name : [MINI Super-HQ]_1.The.Hangover.2009.UNRATED.1080p.BrRip.DTS.x264.One2loadup.com
Encoded date : UTC 2019-01-25 15:48:35
Writing application : mkvmerge v30.1.0 (‘Forever And More’) 64-bit
Writing library : libebml v1.3.6 + libmatroska v1.4.9

Video
ID : 1
Format : AVC
Format/Info : Advanced Video Codec
Format profile : [email protected]
Format settings : CABAC / 3 Ref Frames
Format settings, CABAC : Yes
Format settings, ReFrames : 3 frames
Codec ID : V_MPEG4/ISO/AVC
Duration : 1 h 47 min
Bit rate : 4 238 kb/s
Width : 1 920 pixels
Height : 800 pixels
Display aspect ratio : 2.40:1
Frame rate mode : Constant
Frame rate : 23.976 (24000/1001) FPS
Color space : YUV
Chroma subsampling : 4:2:0
Bit depth : 8 bits
Scan type : Progressive
Bits/(Pixel*Frame) : 0.115
Stream size : 3.19 GiB (68%)
Title : [MINI Super-HQ]_1.The.Hangover.2009.UNRATED.1080p.BrRip.DTS.x264.One2loadup.com
Language : English
Default : Yes
Forced : No

Audio #1
ID : 2
Format : DTS
Format/Info : Digital Theater Systems
Codec ID : A_DTS
Duration : 1 h 47 min
Bit rate mode : Constant
Bit rate : 1 536 kb/s
Channel(s) : 6 channels
Channel layout : C L R Ls Rs LFE
Sampling rate : 48.0 kHz
Frame rate : 93.750 FPS (512 SPF)
Bit depth : 24 bits
Compression mode : Lossy
Stream size : 1.16 GiB (25%)
Title : DTS ENG
Language : English
Default : No
Forced : No

Audio #2
ID : 3
Format : AC-3
Format/Info : Audio Coding 3
Commercial name : Dolby Digital
Codec ID : A_AC3
Duration : 1 h 47 min
Bit rate mode : Constant
Bit rate : 384 kb/s
Channel(s) : 6 channels
Channel layout : L R C LFE Ls Rs
Sampling rate : 48.0 kHz
Frame rate : 31.250 FPS (1536 SPF)
Bit depth : 16 bits
Compression mode : Lossy
Stream size : 296 MiB (6%)
Title : AC-3 THAI
Language : Thai
Service kind : Complete Main
Default : Yes
Forced : No

Text #1
ID : 4
Format : PGS
Muxing mode : zlib
Codec ID : S_HDMV/PGS
Codec ID/Info : Picture based subtitle format used on BDs/HD-DVDs
Duration : 1 h 43 min
Bit rate : 39.7 kb/s
Count of elements : 3600
Stream size : 29.4 MiB (1%)
Title : PGS ENG
Language : English
Default : No
Forced : No

Text #2
ID : 5
Format : PGS
Muxing mode : zlib
Codec ID : S_HDMV/PGS
Codec ID/Info : Picture based subtitle format used on BDs/HD-DVDs
Duration : 1 h 45 min
Bit rate : 52.7 kb/s
Count of elements : 3254
Stream size : 39.7 MiB (1%)
Title : PGS THAI
Language : Thai
Default : Yes
Forced : No

DOWNLOAD


PART01 |||| PART02 |||| PART03 |||| PART04 |||| PART05

PART01 |||| PART02 |||| PART03 |||| PART04 |||| PART05

PART01 |||| PART02 |||| PART03 |||| PART04 |||| PART05

PART01 |||| PART02 |||| PART03 |||| PART04 |||| PART05


3 Comments
  1. fernlnw says

    [MINI Super-HQ] The Hangover (2009) แฮงค์โอเวอร์ เมายกแก๊ง แฮงค์ยกก๊วน ภาค 1 [1080p] [พากย์ไทย 5.1 + เสียงอังกฤษ DTS] [บรรยายไทย + อังกฤษ] [เสียงไทย + ซับไทย] [ONE2UP] โหลดไม่ได้ครับที่ VIP

    1. Admin
      Admin says

      หมายถึง cornfile สินะฮ๊ะ ตอนนี้แก้ให้แล้ว

  2. fernlnw says

    โหลดได้แล้ว ขอบคุณครับ

Leave A Reply

Your email address will not be published.

%d bloggers like this: