[MINI Super-HQ] The Girl with the Dragon Tattoo (2011) พยัคฆ์สาวรอยสักมังกร [1080p] [พากย์ไทย DTS + เสียงอังกฤษ 5.1] [บรรยายไทย + อังกฤษ] [เสียงไทย + ซับไทย] [ONE2UP]

0

The Girl with the Dragon Tattoo (2011) พยัคฆ์สาวรอยสักมังกร

โหลดหนัง  The Girl with the Dragon Tattoo (2011) พยัคฆ์สาวรอยสักมังกร

The Girl with the Dragon Tattoo (2011) 2h 38min | Crime, Drama, Mystery | 19 January 2012 (Netherlands) Summary: Journalist Mikael Blomkvist is aided in his search for a woman who has been missing for forty years by Lisbeth Salander, a young computer hacker.
Countries: USA, Sweden, NorwayLanguages: English, Swedish

เรื่องย่อ The Girl with the Dragon Tattoo (2011) พยัคฆ์สาวรอยสักมังกร

มิเกล บลูมควิสท์ (แดเนี่ยล เคร็ก) นักข่าวหนังสือพิมพ์ที่มีชื่อเสียงเสื่อมเสีย ยอมรับการว่าจ้างให้สืบคดีฆาตกรรมเร้นลับที่ยังไม่สามารถปิดคดีได้มานานกว่า 40 ปี จากมหาเศรษฐีนักอุตสาหกรรมชาวสวีเดนเฮนริกฟานเกอร์ ( คริสโตเฟอร์ พลัมเมอร์) ซึ่งเป็นลุงของเหยื่อในเวลาเดียวกันลิสเบธซาลันเดอร์ (รูนี่ย์ มาร่า) แฮ็กเกอร์สาวพังค์ลายสักมังกรได้ถูกจ้างให้ตามสืบบลูมควิสท์ก็ค้นพบความจริงที่อยู่เบื้องหลังแผนคิดร้ายต่อนักข่าวหนุ่มรายนี้โชคชะตาได้นำทั้งคู่มาร่วมมือกันเปิดโปงความลับคดีประวัติศาสตร์ของการฆาตกรรม และการทารุณทางเพศที่เกิดขึ้นในอดีตและเงื่อนงำทั้งหมดได้พาทั้งคู่เดินหน้าเข้าหาปีศาจร้ายที่ซ่อนตัวอย่างสงบนิ่งเพื่อรอที่จะกลืนกินพวกเขาอย่างไม่ทันรู้ตัว

Complete name : [MINI Super-HQ]_4.The.Girl.with.the.Dragon.Tattoo.2011.1080p.BrRip.DTS.x264.One2loadup.com.mkv
Format : Matroska
Format version : Version 4
File size : 4.80 GiB
Duration : 2 h 38 min
Overall bit rate : 4 347 kb/s
Movie name : [MINI Super-HQ]_4.The.Girl.with.the.Dragon.Tattoo.2011.1080p.BrRip.DTS.x264.One2loadup.com
Encoded date : UTC 2015-10-15 13:05:47
Writing application : mkvmerge v8.1.0 (‘Psychedelic Postcard’) 32bit
Writing library : libebml v1.3.1 + libmatroska v1.4.2
Cover : Yes
Attachments : cover_land.png / cover.png

Video
ID : 1
Format : AVC
Format/Info : Advanced Video Codec
Format profile : [email protected]
Format settings : CABAC / 5 Ref Frames
Format settings, CABAC : Yes
Format settings, ReFrames : 5 frames
Codec ID : V_MPEG4/ISO/AVC
Duration : 2 h 38 min
Bit rate : 3 060 kb/s
Width : 1 920 pixels
Height : 800 pixels
Display aspect ratio : 2.40:1
Frame rate mode : Constant
Frame rate : 23.976 FPS
Color space : YUV
Chroma subsampling : 4:2:0
Bit depth : 8 bits
Scan type : Progressive
Bits/(Pixel*Frame) : 0.083
Stream size : 3.36 GiB (70%)
Title : [MINI Super-HQ]_4.The.Girl.with.the.Dragon.Tattoo.2011.1080p.BrRip.DTS.x264.One2loadup.com
Writing library : x264 core 120 r2164 da19765
Encoding settings : cabac=1 / ref=5 / deblock=1:0:0 / analyse=0x3:0x133 / me=umh / subme=10 / psy=1 / psy_rd=1.00:0.10 / mixed_ref=1 / me_range=32 / chroma_me=1 / trellis=2 / 8x8dct=1 / cqm=0 / deadzone=21,11 / fast_pskip=0 / chroma_qp_offset=-3 / threads=12 / sliced_threads=0 / nr=0 / decimate=0 / interlaced=0 / bluray_compat=0 / constrained_intra=0 / bframes=5 / b_pyramid=2 / b_adapt=2 / b_bias=0 / direct=3 / weightb=1 / open_gop=0 / weightp=2 / keyint=240 / keyint_min=24 / scenecut=40 / intra_refresh=0 / rc_lookahead=60 / rc=2pass / mbtree=1 / bitrate=3060 / ratetol=1.0 / qcomp=0.60 / qpmin=0 / qpmax=69 / qpstep=4 / cplxblur=20.0 / qblur=0.5 / ip_ratio=1.40 / aq=1:1.00
Language : English
Default : No
Forced : No

Audio #1
ID : 2
Format : DTS
Format/Info : Digital Theater Systems
Codec ID : A_DTS
Duration : 2 h 38 min
Bit rate mode : Constant
Bit rate : 768 kb/s
Channel(s) : 6 channels
Channel layout : C L R Ls Rs LFE
Sampling rate : 48.0 kHz
Frame rate : 93.750 FPS (512 SPF)
Bit depth : 24 bits
Compression mode : Lossy
Stream size : 869 MiB (18%)
Title : DTS @768
Language : Thai
Default : Yes
Forced : Yes

Audio #2
ID : 3
Format : AC-3
Format/Info : Audio Coding 3
Commercial name : Dolby Digital
Codec ID : A_AC3
Duration : 2 h 38 min
Bit rate mode : Constant
Bit rate : 448 kb/s
Channel(s) : 6 channels
Channel layout : L R C LFE Ls Rs
Sampling rate : 48.0 kHz
Frame rate : 31.250 FPS (1536 SPF)
Bit depth : 16 bits
Compression mode : Lossy
Stream size : 507 MiB (10%)
Title : AC3
Language : English
Service kind : Complete Main
Default : No
Forced : No

Text #1
ID : 4
Format : VobSub
Codec ID : S_VOBSUB
Codec ID/Info : Picture based subtitle format used on DVDs
Title : 1080P BD MASTER
Language : Thai
Default : Yes
Forced : Yes

Text #2
ID : 5
Format : VobSub
Codec ID : S_VOBSUB
Codec ID/Info : Picture based subtitle format used on DVDs
Title : 1080P YELLOW
Language : Thai
Default : No
Forced : No

Text #3
ID : 6
Format : VobSub
Codec ID : S_VOBSUB
Codec ID/Info : Picture based subtitle format used on DVDs
Title : 1080P UNDER
Language : Thai
Default : No
Forced : No

Text #4
ID : 7
Format : VobSub
Codec ID : S_VOBSUB
Codec ID/Info : Picture based subtitle format used on DVDs
Title : 480P
Language : English
Default : No
Forced : No

Text #5
ID : 8
Format : UTF-8
Codec ID : S_TEXT/UTF8
Codec ID/Info : UTF-8 Plain Text
Title : SRT
Language : English
Default : No
Forced : No

Text #6
ID : 9
Format : PGS
Codec ID : S_HDMV/PGS
Codec ID/Info : Picture based subtitle format used on BDs/HD-DVDs
Title : BD MASTER
Language : Thai
Default : No
Forced : No

Text #7
ID : 10
Format : PGS
Codec ID : S_HDMV/PGS
Codec ID/Info : Picture based subtitle format used on BDs/HD-DVDs
Title : BD UNDER
Language : Thai
Default : No
Forced : No

Menu
00:00:00.000 : :Chapter 01
00:09:53.885 : :Chapter 02
00:22:05.699 : :Chapter 03
00:28:24.786 : :Chapter 04
00:38:09.746 : :Chapter 05
00:48:00.920 : :Chapter 06
00:55:07.346 : :Chapter 07
01:01:06.204 : :Chapter 08
01:09:22.033 : :Chapter 09
01:16:12.860 : :Chapter 10
01:23:27.711 : :Chapter 11
01:32:49.731 : :Chapter 12
01:41:35.006 : :Chapter 13
01:58:54.210 : :Chapter 14
02:14:42.533 : :Chapter 15
02:23:15.837 : :Chapter 16

DOWNLOAD


PART01 |||| PART02 |||| PART03 |||| PART04 |||| PART05

PART01 |||| PART02 |||| PART03 |||| PART04 |||| PART05

PART01 |||| PART02 |||| PART03 |||| PART04 |||| PART05

PART01 |||| PART02 |||| PART03 |||| PART04 |||| PART05


Leave A Reply

Your email address will not be published.

%d bloggers like this: