โหลดหนัง HD MINI-HD SUPER-HQ Full-HD 1080p VIP Master Zoom ซูม หนังใหม่ ออนไลน์ มาสเตอร์ ไทย จีน ฝรั่ง การ์ตูน

[MINI Super-HQ] The Girl Who Played With Fire (2009) ขบถสาวโค่นทรชน โหมไฟสังหาร ภาค 2 [1080p] [พากย์ไทย DTS + เสียงสวีเดน 5.1] [บรรยายไทย] [เสียงไทย + ซับไทย] [ONE2UP]

โหลดหนัง  The Girl Who Played With Fire (2009) ขบถสาวโค่นทรชน โหมไฟสังหาร ภาค 2

เรื่องย่อ The Girl Who Played With Fire (2009) ขบถสาวโค่นทรชน โหมไฟสังหาร ภาค 2

ตอนที่ 2 ของไตรภาคชุด Millennium เรื่องนี้ทำลายความคาดหวังคนดูไปอย่างคาดไม่ถึง เพราะในขณะที่ภาคแรกเล่าเรื่องโดยใช้สูตรหนังตามล่าตัวฆาตกร แต่ตอนที่ 2 นั้น จะกลายเป็นหนังที่ว่าด้วยการกดขี่ทางเพศ ธุรกิจผิดกฏหมาย อำนาจมืดในแวดวงราชการ และการข่มขู่ที่ซับซ้อนสุดคาดเดา ลิสเบธ นางเอกนัยน์ตาดุของเรายังคงไม่สามารถลืมอดีตในวัยเด็กที่หลอกหลอนตัวเองได้ เธอพยายามหนีไปตั้งหลักชีวิตใหม่ในที่ๆ ไม่มีใครรู้จัก แต่แล้ว เธอกลับโดนใส่ร้ายว่าเป็นผู้ลงมือฆ่านักข่าวคนหนึ่ง สิ่งที่ลิสเบธต้องทำมีอยู่สองอย่างคือ เคลียร์ตัวเองให้พ้นจากความผิด และเอาคืนคนที่สาดความผิดใส่เธออย่างสาสม เช่นเคย เธอได้รับความช่วยเหลือจากมิคาเอล นักข่าวหนุ่มใหญ่ที่ตอนนี้เปิดหนังสือพิมพ์เป็นของตนเองในชื่อ มิลเลนเนียม ในฉบับนิยายนั้นภาค 2 ของ Millennium เป็นเล่มที่ขายดีที่สุด และขึ้นอันดับ 1 ในประเทศอังกฤษอยู่หลายสัปดาห์ทีเดียว แน่นอนว่าจุดเด่นเรื่องความระทึกขวัญอันดิบเถื่อนนั้นยังครบเครื่องเต็ม เปี่ยม แต่ที่เด็ดกว่าก็คือ การผูกปมทางจิตใจของตัวละครและปมของโครงเรื่องได้อย่างแนบเนียนชวนติดตาม!!

Complete name : [MINI Super-HQ]_2.The.Girl.Who.Played.With.Fire.2009.1080p.BrRip.DTS.x264.One2loadup.com.mkv
Format : Matroska
Format version : Version 4
File size : 4.32 GiB
Duration : 2 h 9 min
Overall bit rate : 4 775 kb/s
Movie name : [MINI Super-HQ]_2.The.Girl.Who.Played.With.Fire.2009.1080p.BrRip.DTS.x264.One2loadup.com
Encoded date : UTC 2015-10-15 10:58:35
Writing application : mkvmerge v8.1.0 (‘Psychedelic Postcard’) 32bit
Writing library : libebml v1.3.1 + libmatroska v1.4.2
Cover : Yes
Attachments : cover_land.png / cover.png

Video
ID : 1
Format : AVC
Format/Info : Advanced Video Codec
Format profile : [email protected]
Format settings : CABAC / 4 Ref Frames
Format settings, CABAC : Yes
Format settings, ReFrames : 4 frames
Codec ID : V_MPEG4/ISO/AVC
Duration : 2 h 9 min
Bit rate : 3 531 kb/s
Width : 1 920 pixels
Height : 1 080 pixels
Display aspect ratio : 16:9
Frame rate mode : Constant
Frame rate : 24.000 FPS
Color space : YUV
Chroma subsampling : 4:2:0
Bit depth : 8 bits
Scan type : Progressive
Bits/(Pixel*Frame) : 0.071
Stream size : 3.14 GiB (73%)
Title : [MINI Super-HQ]_2.The.Girl.Who.Played.With.Fire.2009.1080p.BrRip.DTS.x264.One2loadup.com
Writing library : x264 core 146 r2538 121396c
Encoding settings : cabac=1 / ref=4 / deblock=1:-3:-3 / analyse=0x3:0x113 / me=umh / subme=11 / psy=1 / psy_rd=1.00:0.00 / mixed_ref=1 / me_range=64 / chroma_me=1 / trellis=2 / 8x8dct=1 / cqm=0 / deadzone=21,11 / fast_pskip=1 / chroma_qp_offset=-2 / threads=24 / lookahead_threads=2 / sliced_threads=0 / nr=0 / decimate=1 / interlaced=0 / bluray_compat=0 / constrained_intra=0 / bframes=4 / b_pyramid=2 / b_adapt=1 / b_bias=0 / direct=1 / weightb=1 / open_gop=0 / weightp=1 / keyint=250 / keyint_min=24 / scenecut=40 / intra_refresh=0 / rc_lookahead=120 / rc=2pass / mbtree=1 / bitrate=3531 / ratetol=1.0 / qcomp=0.60 / qpmin=0 / qpmax=69 / qpstep=4 / cplxblur=20.0 / qblur=0.5 / vbv_maxrate=99999 / vbv_bufsize=99999 / nal_hrd=none / filler=0 / ip_ratio=1.40 / aq=1:1.00
Language : Swedish
Default : Yes
Forced : No

Audio #1
ID : 2
Format : DTS
Format/Info : Digital Theater Systems
Codec ID : A_DTS
Duration : 2 h 9 min
Bit rate mode : Constant
Bit rate : 768 kb/s
Channel(s) : 6 channels
Channel layout : C L R Ls Rs LFE
Sampling rate : 48.0 kHz
Frame rate : 93.750 FPS (512 SPF)
Bit depth : 24 bits
Compression mode : Lossy
Stream size : 712 MiB (16%)
Title : DTS 768
Language : Thai
Default : Yes
Forced : Yes

Audio #2
ID : 3
Format : AC-3
Format/Info : Audio Coding 3
Commercial name : Dolby Digital
Codec ID : A_AC3
Duration : 2 h 9 min
Bit rate mode : Constant
Bit rate : 448 kb/s
Channel(s) : 6 channels
Channel layout : L R C LFE Ls Rs
Sampling rate : 48.0 kHz
Frame rate : 31.250 FPS (1536 SPF)
Bit depth : 16 bits
Compression mode : Lossy
Stream size : 415 MiB (9%)
Title : AC3
Language : Swedish
Service kind : Complete Main
Default : No
Forced : No

Text #1
ID : 4
Format : VobSub
Codec ID : S_VOBSUB
Codec ID/Info : Picture based subtitle format used on DVDs
Title : 1080P TSA
Language : Thai
Default : Yes
Forced : Yes

Text #2
ID : 5
Format : VobSub
Codec ID : S_VOBSUB
Codec ID/Info : Picture based subtitle format used on DVDs
Title : 1080P TSA YELLOW
Language : Thai
Default : No
Forced : No

Text #3
ID : 6
Format : VobSub
Codec ID : S_VOBSUB
Codec ID/Info : Picture based subtitle format used on DVDs
Title : 480P TSA
Language : Thai
Default : No
Forced : No

Text #4
ID : 7
Format : UTF-8
Codec ID : S_TEXT/UTF8
Codec ID/Info : UTF-8 Plain Text
Title : SRT OCR
Language : Thai
Default : No
Forced : No

Text #5
ID : 8
Format : PGS
Codec ID : S_HDMV/PGS
Codec ID/Info : Picture based subtitle format used on BDs/HD-DVDs
Title : TSA
Language : Thai
Default : No
Forced : No

DOWNLOAD


PART01 |||| PART02 |||| PART03 |||| PART04 |||| PART05

PART01 |||| PART02 |||| PART03 |||| PART04 |||| PART05

PART01 |||| PART02 |||| PART03 |||| PART04 |||| PART05

PART01 |||| PART02 |||| PART03 |||| PART04 |||| PART05


Leave A Reply

Your email address will not be published.

%d bloggers like this: