โหลดหนัง HD MINI-HD SUPER-HQ Full-HD 1080p VIP Master Zoom ซูม หนังใหม่ ออนไลน์ มาสเตอร์ ไทย จีน ฝรั่ง การ์ตูน

[MINI Super-HQ] The Girl Who Kicked The Hornet’s Nest (2009) ขบถสาวโค่นทรชน ปิดบัญชีคลั่ง ภาค 3 [1080p] [พากย์ไทย DTS + เสียงสวีเดน 5.1] [บรรยายไทย] [เสียงไทย + ซับไทย] [ONE2UP]

The Girl Who Kicked The Hornet's Nest (2009) ขบถสาวโค่นทรชน ปิดบัญชีคลั่ง ภาค 3

โหลดหนัง  The Girl Who Kicked The Hornet’s Nest (2009) ขบถสาวโค่นทรชน ปิดบัญชีคลั่ง ภาค 3

เรื่องย่อ The Girl Who Kicked The Hornet’s Nest (2009) ขบถสาวโค่นทรชน ปิดบัญชีคลั่ง ภาค 3

หลังจากจบภาค 2 ในลักษณะเดียวกับการปล่อยคนดูค้างไว้บนหน้าผา ลิสเบธ นางเอกของเราได้พบกับพ่อบังเกิดเกล้าของเธอ (และกลายเป็นความหายนะสุดขีดคลั่ง) จนเธอต้องไปนอนพักฟื้นร่างกายในโรงพยาบาล บทสรุปของหนังไตรภาคชุด Millennium ในชื่อ The Girl Who Kicked the Hornet’s Nest ก็จะค่อยๆ ทำการเปิดเผยปมทุกอย่างที่ผูกกันมาตั้งแต่ภาคแรกอย่างลุ้นระทึกค่อยเป็นค่อยไป และที่น่าตกใจมากก็คือ ปูมหลังของลิสเบธนั้น มีความลับซุกซ่อนอยู่มากมายกว่าที่คิดไว้มาก จากหนังฆาตกรรม สู่หนังอาชญากรรม และมาเป็นหนังที่วิพากษ์วิจารณ์การใช้อำนาจคุกคามทาง เพศได้อย่างแยบยล โดยไม่ได้ละทิ้งบรรยากาศดำมืด และความดิบเถื่อนอันเป็นเอกลักษณ์มาตั้งแต่ภาคแรก จึงไม่น่าแปลกใจเลยว่า เหตุใดหนังทั้ง 3 ภาคกวาดรายได้ไปอย่างงดงาม และหนังก็ได้ถูกดัดแปลงเป็นเวอร์ชั่นฮอลลีวู้ดอีกด้วย!!

Complete name : [MINI Super-HQ]_3.The.Girl.Who.Kicked.The.Hornet.s.Nest.2009.1080p.BrRip.DTS.x264.One2loadup.com.mkv
Format : Matroska
Format version : Version 4
File size : 4.34 GiB
Duration : 2 h 26 min
Overall bit rate : 4 237 kb/s
Movie name : [MINI Super-HQ]_3.The.Girl.Who.Kicked.The.Hornet’s.Nest.2009.1080p.BrRip.DTS.x264.One2loadup.com
Encoded date : UTC 2015-10-15 22:53:48
Writing application : mkvmerge v8.1.0 (‘Psychedelic Postcard’) 32bit
Writing library : libebml v1.3.1 + libmatroska v1.4.2
Cover : Yes
Attachments : cover_land.png / cover.png

Video
ID : 1
Format : AVC
Format/Info : Advanced Video Codec
Format profile : [email protected]
Format settings : CABAC / 4 Ref Frames
Format settings, CABAC : Yes
Format settings, ReFrames : 4 frames
Codec ID : V_MPEG4/ISO/AVC
Duration : 2 h 26 min
Bit rate : 2 975 kb/s
Width : 1 920 pixels
Height : 1 080 pixels
Display aspect ratio : 16:9
Frame rate mode : Constant
Frame rate : 24.000 FPS
Color space : YUV
Chroma subsampling : 4:2:0
Bit depth : 8 bits
Scan type : Progressive
Bits/(Pixel*Frame) : 0.060
Stream size : 3.01 GiB (69%)
Title : [MINI Super-HQ]_3.The.Girl.Who.Kicked.The.Hornet’s.Nest.2009.1080p.BrRip.DTS.x264.One2loadup.com
Writing library : x264 core 146 r2538 121396c
Encoding settings : cabac=1 / ref=4 / deblock=1:-3:-3 / analyse=0x3:0x113 / me=umh / subme=11 / psy=1 / psy_rd=1.00:0.00 / mixed_ref=1 / me_range=64 / chroma_me=1 / trellis=2 / 8x8dct=1 / cqm=0 / deadzone=21,11 / fast_pskip=1 / chroma_qp_offset=-2 / threads=24 / lookahead_threads=2 / sliced_threads=0 / nr=0 / decimate=1 / interlaced=0 / bluray_compat=0 / constrained_intra=0 / bframes=4 / b_pyramid=2 / b_adapt=1 / b_bias=0 / direct=1 / weightb=1 / open_gop=0 / weightp=1 / keyint=250 / keyint_min=24 / scenecut=40 / intra_refresh=0 / rc_lookahead=120 / rc=2pass / mbtree=1 / bitrate=2975 / ratetol=1.0 / qcomp=0.60 / qpmin=0 / qpmax=69 / qpstep=4 / cplxblur=20.0 / qblur=0.5 / vbv_maxrate=99999 / vbv_bufsize=99999 / nal_hrd=none / filler=0 / ip_ratio=1.40 / aq=1:1.00
Language : Swedish
Default : Yes
Forced : No

Audio #1
ID : 2
Format : DTS
Format/Info : Digital Theater Systems
Codec ID : A_DTS
Duration : 2 h 26 min
Bit rate mode : Constant
Bit rate : 768 kb/s
Channel(s) : 6 channels
Channel layout : C L R Ls Rs LFE
Sampling rate : 48.0 kHz
Frame rate : 93.750 FPS (512 SPF)
Bit depth : 24 bits
Compression mode : Lossy
Stream size : 806 MiB (18%)
Title : DTS 768
Language : Thai
Default : Yes
Forced : Yes

Audio #2
ID : 3
Format : AC-3
Format/Info : Audio Coding 3
Commercial name : Dolby Digital
Codec ID : A_AC3
Duration : 2 h 26 min
Bit rate mode : Constant
Bit rate : 448 kb/s
Channel(s) : 6 channels
Channel layout : L R C LFE Ls Rs
Sampling rate : 48.0 kHz
Frame rate : 31.250 FPS (1536 SPF)
Bit depth : 16 bits
Compression mode : Lossy
Stream size : 470 MiB (11%)
Title : AC3
Language : Swedish
Service kind : Complete Main
Default : No
Forced : No

Text #1
ID : 4
Format : VobSub
Codec ID : S_VOBSUB
Codec ID/Info : Picture based subtitle format used on DVDs
Title : 1080P TSA
Language : Thai
Default : Yes
Forced : Yes

Text #2
ID : 5
Format : VobSub
Codec ID : S_VOBSUB
Codec ID/Info : Picture based subtitle format used on DVDs
Title : 1080P TSA YELLOW
Language : Thai
Default : No
Forced : No

Text #3
ID : 6
Format : VobSub
Codec ID : S_VOBSUB
Codec ID/Info : Picture based subtitle format used on DVDs
Title : 480P TSA
Language : Thai
Default : No
Forced : No

Text #4
ID : 7
Format : UTF-8
Codec ID : S_TEXT/UTF8
Codec ID/Info : UTF-8 Plain Text
Title : SRT OCR
Language : Thai
Default : No
Forced : No

Text #5
ID : 8
Format : PGS
Codec ID : S_HDMV/PGS
Codec ID/Info : Picture based subtitle format used on BDs/HD-DVDs
Title : TSA
Language : Thai
Default : No
Forced : No

DOWNLOAD


PART01 |||| PART02 |||| PART03 |||| PART04 |||| PART05

PART01 |||| PART02 |||| PART03 |||| PART04 |||| PART05

PART01 |||| PART02 |||| PART03 |||| PART04 |||| PART05

PART01 |||| PART02 |||| PART03 |||| PART04 |||| PART05


Leave A Reply

Your email address will not be published.

%d bloggers like this: