[MINI Super-HQ] The Final Destination 4 (2009) โกงตาย ทะลุตาย ภาค 4 [1080p] [พากย์ไทย 5.1 + เสียงอังกฤษ DTS] [บรรยายไทย + อังกฤษ] [เสียงไทย + ซับไทย] [ONE2UP]

0

The Final Destination 4 (2009) โกงตาย ทะลุตาย ภาค 4

โหลดหนัง The Final Destination 4 (2009) โกงตาย ทะลุตาย ภาค 4

The Final Destination (2009) 1h 22min | Horror | 3 September 2009 (Netherlands) Summary: After a young man's premonition of a deadly race-car crash helps saves the lives of his peers, Death sets out to collect those who evaded their end.
Countries: USALanguages: English

เรื่องย่อ The Final Destination 4 (2009) โกงตาย ทะลุตาย ภาค 4

ในวันที่ควรจะเต็มไปด้วยสีสันอันสนุกสนานของสนามแข่งรถ นิก โอแบนนอน (บ็อบบี แคมโป) กลับเห็นภาพล่วงหน้าถึงหายนะชวนสยอง รถแข่งหลายคันชนกันจนเถ้าติดไฟกระจายสู่อัฒจันทร์และทำให้เพื่อนๆ ของเขาถึงแก่ความตายอย่างทรมาน จากนั้นชั้นบนของอัฒจันทร์ก็พังลงมาทับตัวเขา เมื่อหลุดจากภวังค์ร้าย นิก ตกใจกลัวและกล่อมให้แฟนสาว ลอรี (แชนเทล แวนแซนเทน) และเพื่อนๆ อย่าง เจเนต (เฮลีย์ เวบบ์) และ ฮันต์ (นิก ซาโน) ให้ออกไปจากที่นั่น พวกเขาจึงรอดพ้นจากความตายไปได้อย่างหวุดหวิด ก่อนที่ภาพน่ากลัวที่ นิก เห็นจะเกิดขึ้นจริง เมื่อโกงความตายได้ พวกเขารู้สึกเหมือนได้ต่อเวลาชีวิต แต่โชคร้ายที่การเห็นภาพล่วงหน้าของ นิก ยังดำเนินต่อไป และผู้ที่รอดมาได้กลับทยอยตายกันไปทีละคน ในรูปแบบที่ยิ่งสยดสยองขึ้นทุกที นิก ต้องหาคำตอบให้ได้ว่าจะโกงความตายอีกครั้งและตลอดไปอย่างไร ก่อนที่ตัวเขาเองจะถึงจุดจบ

Complete name : [MINI Super-HQ]_4.Final.Destination.2009.1080p.BrRip.DTS.x264.One2loadup.com.mkv
Format : Matroska
Format version : Version 4
File size : 4.18 GiB
Duration : 1 h 21 min
Overall bit rate : 7 321 kb/s
Movie name : [MINI Super-HQ]_4.Final.Destination.2009.1080p.BrRip.DTS.x264.One2loadup.com
Encoded date : UTC 2018-03-26 09:35:36
Writing application : mkvmerge v18.0.0 (‘Apricity’) 32-bit
Writing library : libebml v1.3.5 + libmatroska v1.4.8

Video
ID : 1
Format : AVC
Format/Info : Advanced Video Codec
Format profile : [email protected]
Format settings : CABAC / 4 Ref Frames
Format settings, CABAC : Yes
Format settings, ReFrames : 4 frames
Codec ID : V_MPEG4/ISO/AVC
Duration : 1 h 21 min
Bit rate : 6 160 kb/s
Width : 1 920 pixels
Height : 800 pixels
Display aspect ratio : 2.40:1
Frame rate mode : Constant
Frame rate : 23.976 (23976/1000) FPS
Color space : YUV
Chroma subsampling : 4:2:0
Bit depth : 8 bits
Scan type : Progressive
Bits/(Pixel*Frame) : 0.167
Stream size : 3.52 GiB (84%)
Title : [MINI Super-HQ]_4.Final.Destination.2009.1080p.BrRip.DTS.x264.One2loadup.com
Writing library : x264 core 146 r2538 121396c
Encoding settings : cabac=1 / ref=4 / deblock=1:-3:-3 / analyse=0x3:0x113 / me=umh / subme=11 / psy=1 / psy_rd=1.00:0.00 / mixed_ref=1 / me_range=64 / chroma_me=1 / trellis=2 / 8x8dct=1 / cqm=0 / deadzone=21,11 / fast_pskip=0 / chroma_qp_offset=-2 / threads=24 / lookahead_threads=2 / sliced_threads=0 / nr=0 / decimate=1 / interlaced=0 / bluray_compat=0 / constrained_intra=0 / bframes=4 / b_pyramid=2 / b_adapt=2 / b_bias=0 / direct=3 / weightb=1 / open_gop=0 / weightp=2 / keyint=250 / keyint_min=23 / scenecut=40 / intra_refresh=0 / rc_lookahead=120 / rc=2pass / mbtree=1 / bitrate=6160 / ratetol=1.0 / qcomp=0.60 / qpmin=0 / qpmax=69 / qpstep=4 / cplxblur=20.0 / qblur=0.5 / vbv_maxrate=50000 / vbv_bufsize=62500 / nal_hrd=none / filler=0 / ip_ratio=1.40 / aq=1:1.00
Language : English
Default : Yes
Forced : No

Audio #1
ID : 2
Format : AC-3
Format/Info : Audio Coding 3
Commercial name : Dolby Digital
Codec ID : A_AC3
Duration : 1 h 21 min
Bit rate mode : Constant
Bit rate : 384 kb/s
Channel(s) : 6 channels
Channel layout : L R C LFE Ls Rs
Sampling rate : 48.0 kHz
Frame rate : 31.250 FPS (1536 SPF)
Bit depth : 16 bits
Compression mode : Lossy
Stream size : 225 MiB (5%)
Language : Thai
Service kind : Complete Main
Default : Yes
Forced : Yes

Audio #2
ID : 3
Format : DTS
Format/Info : Digital Theater Systems
Codec ID : A_DTS
Duration : 1 h 21 min
Bit rate mode : Constant
Bit rate : 755 kb/s
Channel(s) : 6 channels
Channel layout : C L R Ls Rs LFE
Sampling rate : 48.0 kHz
Frame rate : 93.750 FPS (512 SPF)
Bit depth : 24 bits
Compression mode : Lossy
Stream size : 442 MiB (10%)
Language : English
Default : No
Forced : No

Text #1
ID : 4
Format : VobSub
Muxing mode : zlib
Codec ID : S_VOBSUB
Codec ID/Info : Picture based subtitle format used on DVDs
Duration : 1 h 16 min
Bit rate : 6 402 b/s
Count of elements : 798
Stream size : 3.49 MiB (0%)
Title : 1080P
Language : Thai
Default : No
Forced : No

Text #2
ID : 5
Format : VobSub
Muxing mode : zlib
Codec ID : S_VOBSUB
Codec ID/Info : Picture based subtitle format used on DVDs
Duration : 1 h 16 min
Bit rate : 6 389 b/s
Count of elements : 798
Stream size : 3.48 MiB (0%)
Title : 1080P YELLOW
Language : Thai
Default : No
Forced : No

Text #3
ID : 6
Format : VobSub
Muxing mode : zlib
Codec ID : S_VOBSUB
Codec ID/Info : Picture based subtitle format used on DVDs
Duration : 1 h 16 min
Bit rate : 6 402 b/s
Count of elements : 798
Stream size : 3.49 MiB (0%)
Title : 1080P UNDER
Language : Thai
Default : No
Forced : No

Text #4
ID : 7
Format : VobSub
Muxing mode : zlib
Codec ID : S_VOBSUB
Codec ID/Info : Picture based subtitle format used on DVDs
Duration : 1 h 16 min
Bit rate : 1 817 b/s
Count of elements : 798
Stream size : 1 014 KiB (0%)
Title : 480P
Language : Thai
Default : No
Forced : No

Text #5
ID : 8
Format : UTF-8
Codec ID : S_TEXT/UTF8
Codec ID/Info : UTF-8 Plain Text
Duration : 1 h 15 min
Bit rate : 55 b/s
Count of elements : 967
Stream size : 30.5 KiB (0%)
Title : SRT
Language : English
Default : No
Forced : No

Text #6
ID : 9
Format : PGS
Muxing mode : zlib
Codec ID : S_HDMV/PGS
Codec ID/Info : Picture based subtitle format used on BDs/HD-DVDs
Duration : 1 h 16 min
Bit rate : 28.9 kb/s
Count of elements : 1596
Stream size : 15.7 MiB (0%)
Title : PGS
Language : Thai
Default : No
Forced : No

DOWNLOAD


PART01 |||| PART02 |||| PART03 |||| PART04 |||| PART05

PART01 |||| PART02 |||| PART03 |||| PART04 |||| PART05

PART01 |||| PART02 |||| PART03 |||| PART04 |||| PART05

PART01 |||| PART02 |||| PART03 |||| PART04 |||| PART05


Leave A Reply

Your email address will not be published.

%d bloggers like this: