[MINI Super-HQ] The Expendables (2010) โคตรคนทีมมหากาฬ ภาค 1 [1080p] [พากย์ไทย DTS + เสียงอังกฤษ DTS] [บรรยายไทย + อังกฤษ] [เสียงไทย + ซับไทย] [PANDAFILE]

4

โหลดหนัง The Expendables (2010) โคตรคนทีมมหากาฬ ภาค 1

The Expendables (2010) 1h 43min | Action, Adventure, Thriller | 19 August 2010 (Netherlands) Summary: A CIA operative hires a team of mercenaries to eliminate a Latin dictator and a renegade CIA agent.
Countries: USA, BulgariaLanguages: English, Spanish

เรื่องย่อ The Expendables (2010) โคตรคนทีมมหากาฬ ภาค 1

บาร์นีย์ รอส (ซิลเวสเตอร์ สตอลโลน) เป็นชายที่ไม่มีอะไรจะเสีย ด้วยความที่เขาไม่กลัวอะไรและปราศจากอารมณ์ใดๆ เขาจึงเป็นหัวหน้ากลุ่มเป็นผู้รู้และเป็นนักวางแผนของกลุ่มคนที่ใช้ชีวิตเสี่ยงตาย ที่มีความผูกพันกันอย่างแน่นแฟ้น สิ่งที่เขาห่วงใยเพียงอย่างเดียวคือรถปิ๊คอัพ เครื่องบินสะเทิ้นน้ำและลูกทีมนักรบสมัยใหม่ที่จงรักภักดีของเขา เขาเป็นคนมองโลกในแง่ร้ายตัวจริง ที่อธิบายถึงสิ่งที่เขาทำว่า “ขจัดรอยเปื้อนที่กำจัดออกยาก” ทีมงานเบื้องหลังประกอบไปด้วย ลี คริสต์มาส (เจสัน สเตแธม) อดีตเจ้าหน้าที่เอสเอเอส ผู้ชำนาญการใช้ทุกสิ่งที่มีคมมีด, หยิน หยาง (เจ็ท ลี) ปรมาจารย์การต่อสู้ระยะประชิด, เฮล ซีซาร์ (เทอร์รี ครูว์ส) ผู้รู้จักบาร์นีย์ มา 10 ปี และเป็นผู้เชี่ยวชาญด้านอาวุธระยะไกล, โทลล์ โร้ด (แรนดี้ โคตูร์) ผู้เชี่ยวชาญวัตถุระเบิด ผู้ได้รับการยกย่องว่าเป็นมันสมองของกลุ่ม และกุนนาร์ เจนเซน (ดอล์ฟ ลันด์เกรน) สิงห์สงคราม ผู้เชี่ยวชาญด้านการยิงไกล!!

Complete name : [MINI Super-HQ]_The.Expendables.2010.BluRay.1080p.DTS.One2loadup.com.mkv
Format : Matroska
Format version : Version 4 / Version 2
File size : 4.30 GiB
Duration : 1 h 43 min
Overall bit rate mode : Variable
Overall bit rate : 5 948 kb/s
Movie name : [MINI Super-HQ]_The.Expendables.2010.BluRay.1080p.DTS.One2loadup.com
Encoded date : UTC 2010-02-22 21:41:31
Writing application : mkvmerge v5.9.0 (‘On The Loose’) built on Dec 9 2012 15:37:01
Writing library : libebml v1.3.0 + libmatroska v1.4.0

Video
ID : 1
Format : AVC
Format/Info : Advanced Video Codec
Format profile : [email protected]
Format settings : CABAC / 4 Ref Frames
Format settings, CABAC : Yes
Format settings, ReFrames : 4 frames
Codec ID : V_MPEG4/ISO/AVC
Duration : 1 h 43 min
Bit rate mode : Variable
Bit rate : 4 350 kb/s
Maximum bit rate : 100.0 Mb/s
Width : 1 920 pixels
Height : 800 pixels
Display aspect ratio : 2.40:1
Frame rate mode : Constant
Frame rate : 23.976 FPS
Color space : YUV
Chroma subsampling : 4:2:0
Bit depth : 8 bits
Scan type : Progressive
Bits/(Pixel*Frame) : 0.118
Stream size : 3.12 GiB (73%)
Title : [MINI Super-HQ]_The.Expendables.2010.BluRay.1080p.DTS.One2loadup.com
Writing library : x264 core 130 r2273 b3065e6
Encoding settings : cabac=1 / ref=4 / deblock=1:0:0 / analyse=0x3:0x133 / me=umh / subme=11 / psy=1 / psy_rd=1.00:0.15 / mixed_ref=1 / me_range=64 / chroma_me=1 / trellis=2 / 8x8dct=1 / cqm=0 / deadzone=21,11 / fast_pskip=1 / chroma_qp_offset=-3 / threads=16 / lookahead_threads=1 / sliced_threads=0 / nr=0 / decimate=1 / interlaced=0 / bluray_compat=0 / constrained_intra=0 / bframes=4 / b_pyramid=2 / b_adapt=2 / b_bias=0 / direct=3 / weightb=1 / open_gop=0 / weightp=2 / keyint=250 / keyint_min=23 / scenecut=40 / intra_refresh=0 / rc_lookahead=100 / rc=2pass / mbtree=1 / bitrate=4350 / ratetol=1.0 / qcomp=0.60 / qpmin=0 / qpmax=69 / qpstep=4 / cplxblur=20.0 / qblur=0.5 / vbv_maxrate=99999 / vbv_bufsize=99999 / nal_hrd=vbr / ip_ratio=1.40 / aq=1:1.00
Language : English
Default : Yes
Forced : No

Audio #1
ID : 2
Format : DTS
Format/Info : Digital Theater Systems
Codec ID : A_DTS
Duration : 1 h 43 min
Bit rate mode : Constant
Bit rate : 755 kb/s
Channel(s) : 6 channels
Channel positions : Front: L C R, Side: L R, LFE
Sampling rate : 48.0 kHz
Frame rate : 93.750 FPS (512 SPF)
Bit depth : 24 bits
Compression mode : Lossy
Stream size : 558 MiB (13%)
Title : [THAI DTS FROM BLU-RAY MASTER]
Language : Thai
Default : Yes
Forced : No

Audio #2
ID : 3
Format : DTS
Format/Info : Digital Theater Systems
Codec ID : A_DTS
Duration : 1 h 43 min
Bit rate mode : Constant
Bit rate : 755 kb/s
Channel(s) : 6 channels
Channel positions : Front: L C R, Side: L R, LFE
Sampling rate : 48.0 kHz
Frame rate : 93.750 FPS (512 SPF)
Bit depth : 24 bits
Compression mode : Lossy
Stream size : 558 MiB (13%)
Title : eng dts
Language : English
Default : No
Forced : No

Text #1
ID : 4
Format : VobSub
Codec ID : S_VOBSUB
Codec ID/Info : Picture based subtitle format used on DVDs
Title : [SUB THAI 480P FROM BLU-RAY]
Language : Thai
Default : No
Forced : No

Text #2
ID : 5
Format : VobSub
Codec ID : S_VOBSUB
Codec ID/Info : Picture based subtitle format used on DVDs
Title : [SUB THAI 1080P FROM BLU-RAY]
Language : Thai
Default : No
Forced : No

Text #3
ID : 6
Format : PGS
Codec ID : S_HDMV/PGS
Codec ID/Info : Picture based subtitle format used on BDs/HD-DVDs
Title : [SUB THAI PGS FROM BLU-RAY]
Language : Thai
Default : No
Forced : No

Text #4
ID : 7
Format : PGS
Codec ID : S_HDMV/PGS
Codec ID/Info : Picture based subtitle format used on BDs/HD-DVDs
Title : [SUB THAI PGS FROM BLU-RAY] UNDER
Language : Thai
Default : No
Forced : No

Text #5
ID : 8
Format : PGS
Codec ID : S_HDMV/PGS
Codec ID/Info : Picture based subtitle format used on BDs/HD-DVDs
Title : [SUB ENG PGS FROM BLU-RAY]
Language : English
Default : No
Forced : No

Text #6
ID : 9
Format : VobSub
Codec ID : S_VOBSUB
Codec ID/Info : Picture based subtitle format used on DVDs
Title : ENG 480P
Language : English
Default : No
Forced : No

DOWNLOAD


PART01 |||| PART02 |||| PART03 |||| PART04 |||| PART05

PART01 |||| PART02 |||| PART03 |||| PART04 |||| PART05

PART01 |||| PART02 |||| PART03 |||| PART04 |||| PART05

PART01 |||| PART02 |||| PART03 |||| PART04 |||| PART05


4 Comments
  1. Note says

    โหลดไม่ได้ ช่วยแก้ไขด้วยคับ

    1. Admin
      Admin says

      แก้ไขเรียบร้อยฮ๊ะ

  2. Note NSC
    Note NSC says

    โหลดไม่ได้ ช่วยแก้ไขด้วยครับ

    1. Admin
      Admin says

      แก้ไขเรียบร้อยฮ๊ะ

Leave A Reply

Your email address will not be published.

%d bloggers like this: