[MINI Super-HQ] The Expendables 2 (2012) โคตรคน ทีมเอ็กซ์เพนเดเบิ้ล ภาค 2 [1080p] [พากย์ไทย DTS + เสียงอังกฤษ DTS] [บรรยายไทย + อังกฤษ] [เสียงไทย + ซับไทย] [PANDAFILE]

0

โหลดหนัง  The Expendables 2 (2012) โคตรคน ทีมเอ็กซ์เพนเดเบิ้ล ภาค 2

The Expendables 2 (2012) 1h 43min | Action, Adventure, Thriller | 16 August 2012 (Netherlands) Summary: Mr. Church reunites the Expendables for what should be an easy paycheck, but when one of their men is murdered on the job, their quest for revenge puts them deep in enemy territory and up against an unexpected threat.
Countries: USA, GermanyLanguages: English

เรื่องย่อ The Expendables 2 (2012) โคตรคน ทีมเอ็กซ์เพนเดเบิ้ล ภาค 2

สุดยอดหนังที่มีมือพระกาฬในเรื่องประกอบด้วยบาร์นี่ รอส (สตอลโลน), ลี คริสต์มาส (เจสัน สแตแธม), หยินหยาง (เจ็ตลี), กันนาร์ เจนเซ่น (ดอล์ฟ ลันด์เกรน), โทลล์ โรด (แรนดี้ โคเทอร์), เฮล ซีซาร์ (เทียรี่ ครูว์) มารวมกลุ่มกันอีกครั้งในโคตรคนทีมเอ็กซ์เพนเดเบิ้ลพร้อมด้วยลูกทีมใหม่คือเบิลลี่ เดอะคิด (เลียม เฮมส์เวิร์ธ) และแม็กกี้ (ยูนาน) ในการปฏิบัติภารกิจตามคำสั่งของ มร.เชิร์ช (บรูซ วิลลิส) ซึ่งเดิมทีนั้นดูเป็นงานง่ายๆเแต่แล้วก็เกิดเรื่องผิดพลาดขึ้นเมื่อหนึ่งคนในทีม The Expendables ถูกฆ่าตาย ภารกิจใหม่จึงกลายเป็นภารกิจล้างแค้น บุกเข้าแดนเผด็จการของศัตรูตัวฉกาจที่มีอาวุธหนักมากมาย พร้อมกองทัพทหารคอยจัดการพวกเขา!!

Complete name : [MINI Super-HQ]_The.Expendables.2.2012.BluRay.1080p.DTS.One2loadup.com.mkv
Format : Matroska
Format version : Version 4 / Version 2
File size : 4.31 GiB
Duration : 1 h 42 min
Overall bit rate mode : Variable
Overall bit rate : 6 006 kb/s
Movie name : [MINI Super-HQ]_The.Expendables.2.2012.BluRay.1080p.DTS.One2loadup.com
Encoded date : UTC 2010-02-22 21:41:31
Writing application : mkvmerge v5.9.0 (‘On The Loose’) built on Dec 9 2012 15:37:01
Writing library : libebml v1.3.0 + libmatroska v1.4.0

Video
ID : 1
Format : AVC
Format/Info : Advanced Video Codec
Format profile : [email protected]
Format settings : CABAC / 4 Ref Frames
Format settings, CABAC : Yes
Format settings, ReFrames : 4 frames
Codec ID : V_MPEG4/ISO/AVC
Duration : 1 h 42 min
Bit rate mode : Variable
Bit rate : 4 400 kb/s
Maximum bit rate : 100.0 Mb/s
Width : 1 920 pixels
Height : 800 pixels
Display aspect ratio : 2.40:1
Frame rate mode : Constant
Frame rate : 23.976 FPS
Color space : YUV
Chroma subsampling : 4:2:0
Bit depth : 8 bits
Scan type : Progressive
Bits/(Pixel*Frame) : 0.119
Stream size : 3.13 GiB (73%)
Title : [MINI Super-HQ]_The.Expendables.2.2012.BluRay.1080p.DTS.One2loadup.com
Writing library : x264 core 130 r2273 b3065e6
Encoding settings : cabac=1 / ref=4 / deblock=1:0:0 / analyse=0x3:0x133 / me=umh / subme=11 / psy=1 / psy_rd=1.00:0.15 / mixed_ref=1 / me_range=64 / chroma_me=1 / trellis=2 / 8x8dct=1 / cqm=0 / deadzone=21,11 / fast_pskip=1 / chroma_qp_offset=-3 / threads=16 / lookahead_threads=1 / sliced_threads=0 / nr=0 / decimate=1 / interlaced=0 / bluray_compat=0 / constrained_intra=0 / bframes=4 / b_pyramid=2 / b_adapt=2 / b_bias=0 / direct=3 / weightb=1 / open_gop=0 / weightp=2 / keyint=250 / keyint_min=23 / scenecut=40 / intra_refresh=0 / rc_lookahead=100 / rc=2pass / mbtree=1 / bitrate=4400 / ratetol=1.0 / qcomp=0.60 / qpmin=0 / qpmax=69 / qpstep=4 / cplxblur=20.0 / qblur=0.5 / vbv_maxrate=99999 / vbv_bufsize=99999 / nal_hrd=vbr / ip_ratio=1.40 / aq=1:1.00
Language : English
Default : Yes
Forced : No

Audio #1
ID : 2
Format : DTS
Format/Info : Digital Theater Systems
Codec ID : A_DTS
Duration : 1 h 42 min
Bit rate mode : Constant
Bit rate : 768 kb/s
Channel(s) : 6 channels
Channel positions : Front: L C R, Side: L R, LFE
Sampling rate : 48.0 kHz
Frame rate : 93.750 FPS (512 SPF)
Bit depth : 16 bits
Compression mode : Lossy
Stream size : 564 MiB (13%)
Title : [THAI DTS FROM BLU-RAY MASTER]
Language : Thai
Default : Yes
Forced : No

Audio #2
ID : 3
Format : DTS
Format/Info : Digital Theater Systems
Codec ID : A_DTS
Duration : 1 h 42 min
Bit rate mode : Constant
Bit rate : 755 kb/s
Channel(s) : 6 channels
Channel positions : Front: L C R, Side: L R, LFE
Sampling rate : 48.0 kHz
Frame rate : 93.750 FPS (512 SPF)
Bit depth : 24 bits
Compression mode : Lossy
Stream size : 554 MiB (13%)
Title : eng dts
Language : English
Default : No
Forced : No

Text #1
ID : 4
Format : VobSub
Codec ID : S_VOBSUB
Codec ID/Info : Picture based subtitle format used on DVDs
Title : [SUB THAI 480P FROM BLU-RAY]
Language : Thai
Default : No
Forced : No

Text #2
ID : 5
Format : VobSub
Codec ID : S_VOBSUB
Codec ID/Info : Picture based subtitle format used on DVDs
Title : [SUB THAI 1080P FROM BLU-RAY]
Language : Thai
Default : No
Forced : No

Text #3
ID : 6
Format : PGS
Codec ID : S_HDMV/PGS
Codec ID/Info : Picture based subtitle format used on BDs/HD-DVDs
Title : [SUB THAI PGS FROM BLU-RAY]
Language : Thai
Default : No
Forced : No

Text #4
ID : 7
Format : PGS
Codec ID : S_HDMV/PGS
Codec ID/Info : Picture based subtitle format used on BDs/HD-DVDs
Title : [SUB THAI PGS FROM BLU-RAY] UNDER
Language : Thai
Default : No
Forced : No

Text #5
ID : 8
Format : PGS
Codec ID : S_HDMV/PGS
Codec ID/Info : Picture based subtitle format used on BDs/HD-DVDs
Title : [SUB ENG PGS FROM BLU-RAY]
Language : English
Default : No
Forced : No

Text #6
ID : 9
Format : VobSub
Codec ID : S_VOBSUB
Codec ID/Info : Picture based subtitle format used on DVDs
Title : ENG 480P
Language : English
Default : No
Forced : No

DOWNLOAD


PART01 |||| PART02 |||| PART03 |||| PART04 |||| PART05

PART01 |||| PART02 |||| PART03 |||| PART04 |||| PART05

PART01 |||| PART02 |||| PART03 |||| PART04 |||| PART05

PART01 |||| PART02 |||| PART03 |||| PART04 |||| PART05



แจ้งหนังเสีย หรือโหลดไม่ได้ ทั้งลิ้งฟรีและ vip สามารถกดที่รูปด้านบนนี้ได้เลย

: Disable Comments
%d bloggers like this: