[MINI Super-HQ] The Chronicles of Narnia: The Lion, the Witch and the Wardrobe (2005) อภินิหารตำนานแห่งนาร์เนีย ภาค 1 [1080p] [พากย์ไทย 5.1 + เสียงอังกฤษ 5.1] [บรรยายไทย + อังกฤษ] [เสียงไทย + ซับไทย] [OPENLOAD]

1

The Chronicles of Narnia: The Lion, the Witch and the Wardrobe (2005) อภินิหารตำนานแห่งนาร์เนีย ภาค 1

โหลดหนัง The Chronicles of Narnia: The Lion, the Witch and the Wardrobe (2005) อภินิหารตำนานแห่งนาร์เนีย ภาค 1

เรื่องย่อ The Chronicles of Narnia: The Lion, the Witch and the Wardrobe (2005) อภินิหารตำนานแห่งนาร์เนีย ภาค 1

อภินิหารตำนานแห่งนาร์เนีย 1 ตอน ราชสีห์ แม่มด กับตู้พิศวง เป็นเรื่องราวที่เด็ก ๆ นักผจญภัยสี่คน ผู้เล่นซ่อนหาในบ้านชนบทของศาสตราจารย์ชรา ได้บังเอิญพบตู้เสื้อผ้าวิเศษ ที่จะนำพวกเขาไปสู่สถานที่ ที่พวกเขาไม่เคยคิดฝันมาก่อน เมื่อก้าวผ่านประตูตู้วิเศษนั้น พวกเขาก็ได้ผ่านพ้นจากกรุงลอนดอน ที่กำลังเผชิญสงครามโลกครั้งที่สอง ไปสู่โลกเสมือนที่น่าตื่นตาตื่นใจ ที่เป็นรู้จักกันในนาม นาร์เนีย ดินแดนเทพนิยายมหัศจรรย์ ที่ซึ่งสัตว์ในป่าพูดได้ และสิ่งมีชีวิตในเทพนิยายเดินท่องไปทั่วหุบเขาแต่นาร์เนียกลับอยู่ภายใต้มนต์ที่เย็นยะเยียบของแม่ม ดร้าย มันถูกสาปให้ต้องเผชิญกับฤดูหนาวที่ไม่มีวันสิ้นสุดโดย จาดิส แม่มดขาว บัดนี้ ด้วยความช่วยเหลือของผู้นำที่แท้จริงของนาร์เนีย อัสลาน สิงโตวิเศษผู้ชาญฉลาด เด็ก ๆ พีเวนซี่ทั้งสี่ จะค้นพบความเข้มแข็งของตัวเอง และนำนาร์เนียสู่สงครามอันตระการตา เพื่อให้หลุดพ้นจากคำสาปเยือกแข็งของแม่มดขาวไปตลอดก าล ด้วยเรื่องราวที่มีธีมอมตะของความดีและความชั่ว และพลังของครอบครัว ความกล้าหาญ และความหวัง ในช่วงเวลาที่มืดหม่นที่สุด The Chronicles of Narnia: The Lion, the Witch and the Wardrobe จึงเป็นนิทานคลาสสิกในยุคสมัยของเรา…

Complete name : [MINI Super-HQ]_The.Chronicles.of.Narnia.The.Lion.the.Witch.and.the.Wardrobe.2005.1080p.AC3.x264.One2loadup.com.mkv
Format : Matroska
Format version : Version 4
File size : 5.47 GiB
Duration : 2 h 22 min
Overall bit rate : 5 478 kb/s
Movie name : [MINI Super-HQ]_The.Chronicles.of.Narnia.The.Lion.the.Witch.and.the.Wardrobe.2005.1080p.AC3.x264.One2loadup.com
Encoded date : UTC 2016-10-01 01:44:31 / UTC 2016-09-30T10:18:28Z
Writing application : mkvmerge v8.3.0 (‘Over the Horizon’) 64bit
Writing library : libebml v1.3.1 + libmatroska v1.4.2 / Lavf55.12.0

Video
ID : 1
Format : AVC
Format/Info : Advanced Video Codec
Format profile : [email protected]
Format settings : CABAC / 4 Ref Frames
Format settings, CABAC : Yes
Format settings, ReFrames : 4 frames
Codec ID : V_MPEG4/ISO/AVC
Duration : 2 h 22 min
Bit rate : 4 089 kb/s
Width : 1 920 pixels
Height : 816 pixels
Display aspect ratio : 2.35:1
Frame rate mode : Constant
Frame rate : 23.976 (24000/1001) FPS
Color space : YUV
Chroma subsampling : 4:2:0
Bit depth : 8 bits
Scan type : Progressive
Bits/(Pixel*Frame) : 0.109
Stream size : 4.08 GiB (75%)
Title : [MINI Super-HQ]_The.Chronicles.of.Narnia.The.Lion.the.Witch.and.the.Wardrobe.2005.1080p.AC3.x264.One2loadup.com
Writing library : x264 core 142 r2479 dd79a61
Encoding settings : cabac=1 / ref=1 / deblock=1:0:0 / analyse=0x1:0x111 / me=hex / subme=2 / psy=1 / psy_rd=1.00:0.00 / mixed_ref=0 / me_range=16 / chroma_me=1 / trellis=0 / 8x8dct=0 / cqm=0 / deadzone=21,11 / fast_pskip=1 / chroma_qp_offset=0 / threads=6 / lookahead_threads=2 / sliced_threads=0 / nr=0 / decimate=1 / interlaced=0 / bluray_compat=0 / constrained_intra=0 / bframes=3 / b_pyramid=2 / b_adapt=1 / b_bias=0 / direct=1 / weightb=1 / open_gop=0 / weightp=1 / keyint=240 / keyint_min=24 / scenecut=40 / intra_refresh=0 / rc_lookahead=10 / rc=crf / mbtree=1 / crf=20.0 / qcomp=0.60 / qpmin=0 / qpmax=69 / qpstep=4 / vbv_maxrate=20000 / vbv_bufsize=25000 / crf_max=0.0 / nal_hrd=none / filler=0 / ip_ratio=1.40 / aq=1:1.00
Language : Thai
Default : Yes
Forced : Yes
Color range : Limited
Color primaries : BT.709
Transfer characteristics : BT.709
Matrix coefficients : BT.709

Audio #1
ID : 2
Format : AC-3
Format/Info : Audio Coding 3
Commercial name : Dolby Digital
Codec ID : A_AC3
Duration : 2 h 22 min
Bit rate mode : Constant
Bit rate : 640 kb/s
Channel(s) : 6 channels
Channel layout : L R C LFE Ls Rs
Sampling rate : 48.0 kHz
Frame rate : 31.250 FPS (1536 SPF)
Bit depth : 16 bits
Compression mode : Lossy
Delay relative to video : -5 ms
Stream size : 654 MiB (12%)
Title : Surround
Language : English
Service kind : Complete Main
Default : No
Forced : Yes

Audio #2
ID : 3
Format : AC-3
Format/Info : Audio Coding 3
Commercial name : Dolby Digital
Codec ID : A_AC3
Duration : 2 h 22 min
Bit rate mode : Constant
Bit rate : 640 kb/s
Channel(s) : 6 channels
Channel layout : L R C LFE Ls Rs
Sampling rate : 48.0 kHz
Frame rate : 31.250 FPS (1536 SPF)
Bit depth : 16 bits
Compression mode : Lossy
Stream size : 654 MiB (12%)
Title : Surround
Language : Thai
Service kind : Complete Main
Default : Yes
Forced : Yes

Text #1
ID : 4
Format : PGS
Muxing mode : zlib
Codec ID : S_HDMV/PGS
Codec ID/Info : Picture based subtitle format used on BDs/HD-DVDs
Language : Thai
Default : No
Forced : Yes

Text #2
ID : 5
Format : PGS
Muxing mode : zlib
Codec ID : S_HDMV/PGS
Codec ID/Info : Picture based subtitle format used on BDs/HD-DVDs
Language : Portuguese
Default : No
Forced : Yes

Text #3
ID : 6
Format : PGS
Muxing mode : zlib
Codec ID : S_HDMV/PGS
Codec ID/Info : Picture based subtitle format used on BDs/HD-DVDs
Language : Thai
Default : No
Forced : Yes

Text #4
ID : 7
Format : PGS
Muxing mode : zlib
Codec ID : S_HDMV/PGS
Codec ID/Info : Picture based subtitle format used on BDs/HD-DVDs
Language : Thai
Default : Yes
Forced : Yes

Menu
00:00:00.000 : :Chapter 1
00:07:07.195 : :Chapter 2
00:11:15.151 : :Chapter 3
00:18:23.245 : :Chapter 4
00:24:34.325 : :Chapter 5
00:29:45.886 : :Chapter 6
00:34:55.862 : :Chapter 7
00:39:29.928 : :Chapter 8
00:46:50.368 : :Chapter 9
00:50:22.663 : :Chapter 10
00:56:42.376 : :Chapter 11
01:01:14.981 : :Chapter 12
01:12:16.392 : :Chapter 13
01:18:56.458 : :Chapter 14
01:24:35.672 : :Chapter 15
01:31:49.481 : :Chapter 16
01:37:40.832 : :Chapter 17
01:46:13.093 : :Chapter 18
01:49:13.273 : :Chapter 19
01:52:38.520 : :Chapter 20
01:54:59.995 : :Chapter 21
01:59:28.638 : :Chapter 22
02:05:29.207 : :Chapter 23
02:11:33.946 : :Chapter 24

DOWNLOAD


PART01 |||| PART02 |||| PART03 |||| PART04 |||| PART05 |||| PART06

PART01 |||| PART02 |||| PART03 |||| PART04 |||| PART05 |||| PART06

PART01 |||| PART02 |||| PART03 |||| PART04 |||| PART05 |||| PART06

PART01 |||| PART02 |||| PART03 |||| PART04 |||| PART05 |||| PART06


1 Comment
  1. Boydm Lion
    Boydm Lion says

    ขอบคุณนะครับ

Leave A Reply

Your email address will not be published.

%d bloggers like this: