[MINI Super-HQ] The Blind Side (2009) แม่ผู้นี้มีแต่รักแท้ [1080p] [พากย์ไทย 5.1 + เสียงอังกฤษ DTS] [บรรยายไทย + อังกฤษ] [เสียงไทย + ซับไทย] [OPENLOAD]

0

The Blind Side (2009) แม่ผู้นี้มีแต่รักแท้

โหลดหนัง The Blind Side (2009) แม่ผู้นี้มีแต่รักแท้

The Blind Side (2009) 2h 9min | Biography, Drama, Sport | 20 November 2009 (USA) Summary: The story of Michael Oher, a homeless and traumatized boy who became an All American football player and first round NFL draft pick with the help of a caring woman and her family.
Countries: USALanguages: English

เรื่องย่อ The Blind Side (2009) แม่ผู้นี้มีแต่รักแท้

จากชีวิต Michael Oher ผู้ซึ่งกลายมาเป็น นักฟุตบอลที่โด่งดังในอเมริกา เรื่องราวแรงบัลดาลใจของครอบครัว Touhy ที่รับบุตรบุญธรรมที่ไม่มีใครคิดว่าจะรับมาเลี้ยงดู เด็กที่ดูน่ากลัว แต่กลับได้รับความอุ่นจาก พ่อซึ่งรับบทโดย Tim McGraw และภรรยา ซึ่งรับบท Sandra Bullock สาวใจถึงซึ่งเป็นใครคงคิดว่าเอาโจรเข้าบ้านแท้ ๆ แต่กลับกล้าที่จะส่งเสริมและเป็นกำลังให้ใครซักคนหนึ่งได้มีแรงในการใช้ชีวิต เรื่องราวของ วัยรุ่นเชื้อสายแอฟริกัน-อเมริกันผู้ยากจนการศึกษาไม่สูงที่มีน้ำหนักตัวถึง 334 ปอนด์ในเมมฟิส ซึ่งพ่อถูกฆาตกรรม และแม่ติดยา ย่างก้าวผ่านระบบโรงเรียนรัฐบาล แม้จะเกรดเฉลี่ยต่ำ และขาดเรียนเป็นประจำก็ตาม แต่ร่างกายที่ใหญ่โต และความเร็วของเขา ดึงดูดความสนใจของเศรษฐีคู่สามีภรรยาผิวขาวที่เอาเขาไปชุบเลี้ยงทั้งด้านกีฬา และ วิชาการ เพื่อทำให้เขาเป็น 1 ในนักกีฬาฟุตบอลตัวความหวังแถวหน้าระดับไฮสกูลของประเทศ!!!

Complete name : [MINI Super-HQ]_The.Blind.Side.2009.1080p.BrRip.DTS.x264.One2loadup.com.mkv
Format : Matroska
Format version : Version 4
File size : 3.99 GiB
Duration : 2 h 8 min
Overall bit rate : 4 443 kb/s
Movie name : [MINI Super-HQ]_The.Blind.Side.2009.1080p.BrRip.DTS.x264.One2loadup.com
Encoded date : UTC 2010-02-22 21:41:31
Writing application : mkvmerge v5.9.0 (‘On The Loose’) built on Dec 9 2012 15:37:01
Writing library : libebml v1.3.0 + libmatroska v1.4.0

Video
ID : 1
Format : AVC
Format/Info : Advanced Video Codec
Format profile : [email protected]
Format settings : CABAC / 4 Ref Frames
Format settings, CABAC : Yes
Format settings, ReFrames : 4 frames
Codec ID : V_MPEG4/ISO/AVC
Duration : 2 h 8 min
Bit rate : 3 151 kb/s
Width : 1 920 pixels
Height : 1 080 pixels
Display aspect ratio : 16:9
Frame rate mode : Constant
Frame rate : 23.810 FPS
Color space : YUV
Chroma subsampling : 4:2:0
Bit depth : 8 bits
Scan type : Progressive
Bits/(Pixel*Frame) : 0.064
Stream size : 2.89 GiB (72%)
Title : [MINI Super-HQ]_The.Blind.Side.2009.1080p.BrRip.DTS.x264.One2loadup.com
Writing library : x264 core 142 r2479 dd79a61
Encoding settings : cabac=1 / ref=4 / deblock=1:0:0 / analyse=0x3:0x113 / me=umh / subme=11 / psy=1 / psy_rd=1.00:0.00 / mixed_ref=1 / me_range=32 / chroma_me=1 / trellis=2 / 8x8dct=1 / cqm=0 / deadzone=21,11 / fast_pskip=1 / chroma_qp_offset=-2 / threads=36 / lookahead_threads=4 / sliced_threads=0 / nr=0 / decimate=1 / interlaced=0 / bluray_compat=0 / constrained_intra=0 / bframes=4 / b_pyramid=2 / b_adapt=2 / b_bias=0 / direct=1 / weightb=1 / open_gop=0 / weightp=2 / keyint=240 / keyint_min=24 / scenecut=40 / intra_refresh=0 / rc_lookahead=40 / rc=2pass / mbtree=1 / bitrate=3151 / ratetol=1.0 / qcomp=0.60 / qpmin=0 / qpmax=69 / qpstep=4 / cplxblur=20.0 / qblur=0.5 / ip_ratio=1.40 / aq=1:1.00
Language : English
Default : Yes
Forced : No
Color range : Limited
Color primaries : BT.709
Transfer characteristics : BT.709
Matrix coefficients : BT.709

Audio #1
ID : 2
Format : AC-3
Format/Info : Audio Coding 3
Commercial name : Dolby Digital
Codec ID : A_AC3
Duration : 2 h 8 min
Bit rate mode : Constant
Bit rate : 384 kb/s
Channel(s) : 6 channels
Channel layout : L R C LFE Ls Rs
Sampling rate : 48.0 kHz
Frame rate : 31.250 FPS (1536 SPF)
Bit depth : 16 bits
Compression mode : Lossy
Stream size : 353 MiB (9%)
Title : Thai DVD Master
Language : Thai
Service kind : Complete Main
Default : Yes
Forced : Yes

Audio #2
ID : 3
Format : DTS
Format/Info : Digital Theater Systems
Codec ID : A_DTS
Duration : 2 h 8 min
Bit rate mode : Constant
Bit rate : 755 kb/s
Channel(s) : 6 channels
Channel layout : C L R Ls Rs LFE
Sampling rate : 48.0 kHz
Frame rate : 93.750 FPS (512 SPF)
Bit depth : 24 bits
Compression mode : Lossy
Stream size : 694 MiB (17%)
Title : English DTS
Language : English
Default : No
Forced : No

Text #1
ID : 4
Format : VobSub
Codec ID : S_VOBSUB
Codec ID/Info : Picture based subtitle format used on DVDs
Title : Thai 480p From DVD Master
Language : Thai
Default : No
Forced : No

Text #2
ID : 5
Format : VobSub
Codec ID : S_VOBSUB
Codec ID/Info : Picture based subtitle format used on DVDs
Title : Thai 720p
Language : Thai
Default : No
Forced : No

Text #3
ID : 6
Format : VobSub
Codec ID : S_VOBSUB
Codec ID/Info : Picture based subtitle format used on DVDs
Title : Thai 1080p Angsana
Language : Thai
Default : Yes
Forced : Yes

Text #4
ID : 7
Format : VobSub
Codec ID : S_VOBSUB
Codec ID/Info : Picture based subtitle format used on DVDs
Title : Thai 1080p Freesia
Language : Thai
Default : No
Forced : No

Text #5
ID : 8
Format : VobSub
Codec ID : S_VOBSUB
Codec ID/Info : Picture based subtitle format used on DVDs
Title : Thai 1080p Yellow
Language : Thai
Default : No
Forced : No

Text #6
ID : 9
Format : VobSub
Codec ID : S_VOBSUB
Codec ID/Info : Picture based subtitle format used on DVDs
Title : Thai 1080p BIG
Language : Thai
Default : No
Forced : No

Text #7
ID : 10
Format : PGS
Codec ID : S_HDMV/PGS
Codec ID/Info : Picture based subtitle format used on BDs/HD-DVDs
Title : Thai PGS Angsana
Language : Thai
Default : No
Forced : No

Text #8
ID : 11
Format : PGS
Codec ID : S_HDMV/PGS
Codec ID/Info : Picture based subtitle format used on BDs/HD-DVDs
Title : Thai PGS Freesia
Language : Thai
Default : No
Forced : No

Text #9
ID : 12
Format : PGS
Codec ID : S_HDMV/PGS
Codec ID/Info : Picture based subtitle format used on BDs/HD-DVDs
Title : Thai PGS Yellow
Language : Thai
Default : No
Forced : No

Text #10
ID : 13
Format : UTF-8
Codec ID : S_TEXT/UTF8
Codec ID/Info : UTF-8 Plain Text
Title : English
Language : English
Default : No
Forced : No

Menu
00:00:00.000 : en:1. Ideal Left Tackle
00:05:45.804 : en:2. Christian Thing
00:09:14.888 : en:3. White Walls
00:14:43.800 : en:4. Family News
00:18:39.286 : en:5. Just for One Night
00:24:25.757 : en:6. Thanksgiving Table
00:28:41.554 : en:7. Homeless
00:32:37.082 : en:8. Leigh Anne’s Project
00:36:49.251 : en:9. Never Had One Before
00:39:49.639 : en:10. Marcus and Ferdinand
00:46:01.678 : en:11. Comfort Levels
00:51:03.063 : en:12. Personal Thing
00:54:42.490 : en:13. Becoming Legal
00:59:15.221 : en:14. Mrs. Oher
01:02:55.734 : en:15. Armed for an Accident
01:08:29.693 : en:16. Protect the Family
01:12:55.166 : en:17. So Many Rednecks
01:17:44.623 : en:18. I Got Your Back
01:22:44.756 : en:19. I Want Him Bad
01:26:22.432 : en:20. Miss Sue and A Coaching Slew
01:33:44.749 : en:21. The Decision
01:37:01.071 : en:22. Something to Write About
01:41:39.349 : en:23. Graduation Day
01:43:06.102 : en:24. Don’t You Dare Lie
01:48:06.403 : en:25. Protect Mode
01:53:37.567 : en:26. Where My Family Goes
01:58:58.638 : en:27. Thank God and LT
02:02:29.474 : en:28. Epilogue and End Credits

DOWNLOAD


PART01 |||| PART02 |||| PART03 |||| PART04

PART01 |||| PART02 |||| PART03 |||| PART04

PART01 |||| PART02 |||| PART03 |||| PART04

PART01 |||| PART02 |||| PART03 |||| PART04


Leave A Reply

Your email address will not be published.

%d bloggers like this: