[MINI Super-HQ] Step Up Revolution (2012) สเต็ปโดนใจ หัวใจโดนเธอ ภาค 4 [1080p] [พากย์ไทย DTS + เสียงอังกฤษ DTS] [บรรยายไทย + อังกฤษ] [เสียงไทย + ซับไทย] [OPENLOAD]

0

Step Up Revolution (2012)

โหลดหนัง Step Up Revolution (2012) สเต็ปโดนใจ หัวใจโดนเธอ ภาค 4

Step Up Revolution (2012) 1h 39min | Drama, Music, Romance | 27 July 2012 (USA) Summary: Emily arrives in Miami with aspirations to become a professional dancer. She sparks with Sean, the leader of a dance crew whose neighborhood is threatened by Emily's father's development plans.
Countries: USALanguages: English

เรื่องย่อ Step Up Revolution (2012) สเต็ปโดนใจ หัวใจโดนเธอ ภาค 4

กลับมาตามคำเรียกร้องของแฟน ๆ สำหรับสุดยอดแฟรนไชส์หนังเต้นที่ประสบความสำเร็จที่สุดในโลก ทำเงินทั่วโลกไปกว่า 420 ล้านเหรียญ และทำเงินสูงกว่าภาคก่อนหน้าทุกครั้ง Step Up Revolution เป็นผลงานของทีมผู้สร้างเดิมจากทั้งสามภาค และยังทำเป็นหนังสามมิติเหมือนเดิม

เรื่องราวใน Step Up: Revolution เกิดขึ้นในไมอามี่ เมืองที่ผสมผสานวัฒนธรรมท้องถิ่นเข้ากับละตินอย่างเร่าร้อน เมื่อ ฌอน (ไรอัน กุซแมน) หัวหน้าทีมแฟลชม็อบใต้ดินชื่อดัง ใฝ่ฝันว่าตัวเองสามารถเปลี่ยนชะตาชีวิตได้ตกหลุมรักกับ เอมิลี่ (แคทเธอรีน แม็คคอร์มิค) ผู้หญิงที่เกิดในครอบครัวมีฐานะและฝึกบัลเล่ต์มาตั้ง แต่เด็ก ที่เดินทางมาพักร้อนเพื่อค้นหาความต้องการที่แท้จริง ในชีวิต

Complete name : [MINI Super-HQ]_Step.Up.Revolution.4.2012.1080p.BDRip.DTS.x264.One2loadup.com.mkv
Format : Matroska
Format version : Version 4
File size : 9.60 GiB
Duration : 1 h 38 min
Overall bit rate : 13.9 Mb/s
Movie name : [MINI Super-HQ]_Step.Up.Revolution.4.2012.1080p.BDRip.DTS.x264.One2loadup.com
Encoded date : UTC 2018-03-22 16:20:39
Writing application : mkvmerge v8.2.0 (‘World of Adventure’) 64bit
Writing library : libebml v1.3.1 + libmatroska v1.4.2

Video
ID : 1
Format : AVC
Format/Info : Advanced Video Codec
Format profile : [email protected]
Format settings : CABAC / 5 Ref Frames
Format settings, CABAC : Yes
Format settings, ReFrames : 5 frames
Codec ID : V_MPEG4/ISO/AVC
Duration : 1 h 38 min
Bit rate : 9 983 kb/s
Width : 1 920 pixels
Height : 800 pixels
Display aspect ratio : 2.40:1
Frame rate mode : Constant
Frame rate : 23.976 FPS
Color space : YUV
Chroma subsampling : 4:2:0
Bit depth : 8 bits
Scan type : Progressive
Bits/(Pixel*Frame) : 0.271
Stream size : 6.88 GiB (72%)
Title : [MINI Super-HQ]_Step.Up.Revolution.4.2012.1080p.BDRip.DTS.x264.One2loadup.com
Writing library : x264 core 125 r2208 d9d2288
Encoding settings : cabac=1 / ref=5 / deblock=1:-3:-3 / analyse=0x3:0x113 / me=umh / subme=10 / psy=1 / psy_rd=1.05:0.10 / mixed_ref=1 / me_range=32 / chroma_me=1 / trellis=2 / 8x8dct=1 / cqm=0 / deadzone=21,11 / fast_pskip=0 / chroma_qp_offset=-2 / threads=8 / lookahead_threads=1 / sliced_threads=0 / nr=0 / decimate=1 / interlaced=0 / bluray_compat=0 / constrained_intra=0 / bframes=5 / b_pyramid=2 / b_adapt=2 / b_bias=0 / direct=3 / weightb=1 / open_gop=0 / weightp=2 / keyint=250 / keyint_min=23 / scenecut=40 / intra_refresh=0 / rc=2pass / mbtree=0 / bitrate=9983 / ratetol=1.0 / qcomp=0.70 / qpmin=0 / qpmax=69 / qpstep=4 / cplxblur=20.0 / qblur=0.5 / ip_ratio=1.40 / pb_ratio=1.30 / aq=2:1.00
Language : English
Default : Yes
Forced : No

Audio #1
ID : 2
Format : DTS
Format/Info : Digital Theater Systems
Codec ID : A_DTS
Duration : 1 h 38 min
Bit rate mode : Constant
Bit rate : 1 510 kb/s
Channel(s) : 6 channels
Channel layout : C L R Ls Rs LFE
Sampling rate : 48.0 kHz
Frame rate : 93.750 FPS (512 SPF)
Bit depth : 24 bits
Compression mode : Lossy
Stream size : 1.04 GiB (11%)
Title : Thai DTS
Language : Thai
Default : Yes
Forced : Yes

Audio #2
ID : 3
Format : DTS
Format/Info : Digital Theater Systems
Codec ID : A_DTS
Duration : 1 h 38 min
Bit rate mode : Constant
Bit rate : 1 509 kb/s
Channel(s) : 6 channels
Channel layout : C L R Ls Rs LFE
Sampling rate : 48.0 kHz
Frame rate : 93.750 FPS (512 SPF)
Bit depth : 24 bits
Compression mode : Lossy
Stream size : 1.04 GiB (11%)
Title : Eng DTS
Language : English
Default : No
Forced : No

Audio #3
ID : 4
Format : AC-3
Format/Info : Audio Coding 3
Commercial name : Dolby Digital
Codec ID : A_AC3
Duration : 1 h 38 min
Bit rate mode : Constant
Bit rate : 448 kb/s
Channel(s) : 6 channels
Channel layout : L R C LFE Ls Rs
Sampling rate : 48.0 kHz
Frame rate : 31.250 FPS (1536 SPF)
Bit depth : 16 bits
Compression mode : Lossy
Stream size : 316 MiB (3%)
Title : Thai AC-3
Language : Thai
Service kind : Complete Main
Default : No
Forced : No

Audio #4
ID : 5
Format : AC-3
Format/Info : Audio Coding 3
Commercial name : Dolby Digital
Codec ID : A_AC3
Duration : 1 h 38 min
Bit rate mode : Constant
Bit rate : 448 kb/s
Channel(s) : 6 channels
Channel layout : L R C LFE Ls Rs
Sampling rate : 48.0 kHz
Frame rate : 31.250 FPS (1536 SPF)
Bit depth : 16 bits
Compression mode : Lossy
Stream size : 316 MiB (3%)
Title : Eng AC-3
Language : English
Service kind : Complete Main
Default : No
Forced : No

Text #1
ID : 6
Format : VobSub
Muxing mode : zlib
Codec ID : S_VOBSUB
Codec ID/Info : Picture based subtitle format used on DVDs
Duration : 1 h 33 min
Bit rate : 4 103 b/s
Count of elements : 979
Stream size : 2.74 MiB (0%)
Title : Thai
Language : Thai
Default : No
Forced : No

Text #2
ID : 7
Format : VobSub
Muxing mode : zlib
Codec ID : S_VOBSUB
Codec ID/Info : Picture based subtitle format used on DVDs
Duration : 1 h 33 min
Bit rate : 4 052 b/s
Count of elements : 979
Stream size : 2.71 MiB (0%)
Title : Thai
Language : Thai
Default : No
Forced : No

Text #3
ID : 8
Format : VobSub
Muxing mode : zlib
Codec ID : S_VOBSUB
Codec ID/Info : Picture based subtitle format used on DVDs
Duration : 1 h 33 min
Bit rate : 1 513 b/s
Count of elements : 979
Stream size : 1.01 MiB (0%)
Title : Thai
Language : Thai
Default : No
Forced : No

Text #4
ID : 9
Format : VobSub
Muxing mode : zlib
Codec ID : S_VOBSUB
Codec ID/Info : Picture based subtitle format used on DVDs
Duration : 1 h 33 min
Bit rate : 4 472 b/s
Count of elements : 979
Stream size : 2.98 MiB (0%)
Title : Thai Out
Language : Thai
Default : No
Forced : No

Text #5
ID : 10
Format : PGS
Muxing mode : zlib
Codec ID : S_HDMV/PGS
Codec ID/Info : Picture based subtitle format used on BDs/HD-DVDs
Duration : 1 h 33 min
Bit rate : 14.5 kb/s
Count of elements : 1958
Stream size : 9.66 MiB (0%)
Title : Thai PGS
Language : Thai
Default : No
Forced : No

Text #6
ID : 11
Format : UTF-8
Codec ID : S_TEXT/UTF8
Codec ID/Info : UTF-8 Plain Text
Duration : 1 h 31 min
Bit rate : 54 b/s
Count of elements : 1055
Stream size : 36.8 KiB (0%)
Title : Eng SRT
Language : English
Default : No
Forced : No

Menu
00:00:00.000 : :Chapter 1
00:05:00.000 : :Chapter 2
00:10:00.000 : :Chapter 3
00:15:00.000 : :Chapter 4
00:20:00.000 : :Chapter 5
00:25:00.000 : :Chapter 6
00:30:00.000 : :Chapter 7
00:35:00.000 : :Chapter 8
00:40:00.000 : :Chapter 9
00:45:00.000 : :Chapter 10
00:50:00.000 : :Chapter 11
00:55:00.000 : :Chapter 12
01:00:00.000 : :Chapter 13
01:05:00.000 : :Chapter 14
01:10:00.000 : :Chapter 15
01:15:00.000 : :Chapter 16
01:20:00.000 : :Chapter 17
01:25:00.000 : :Chapter 18
01:30:00.000 : :Chapter 19
01:35:00.000 : :Chapter 20

DOWNLOAD


PART01 |||| PART02 |||| PART03 |||| PART04 |||| PART05

PART01 |||| PART02 |||| PART03 |||| PART04 |||| PART05

PART01 |||| PART02 |||| PART03 |||| PART04 |||| PART05

PART01 |||| PART02 |||| PART03 |||| PART04 |||| PART05


Leave A Reply

Your email address will not be published.