โหลดหนัง HD MINI-HD SUPER-HQ Full-HD 1080p VIP Master Zoom ซูม หนังใหม่ ออนไลน์ มาสเตอร์ ไทย จีน ฝรั่ง การ์ตูน

[MINI Super-HQ] Star Trek: Into Darkness (2013) สตาร์ เทรค: ทะยานสู่ห้วงมืด 2 [IMAX Edition] [1080p] [พากย์ไทย 5.1 + เสียงอังกฤษ 5.1] [บรรยายไทย + อังกฤษ] [เสียงไทย + ซับไทย] [OPENLOAD]

โหลดหนัง  Star Trek: Into Darkness (2013) สตาร์ เทรค: ทะยานสู่ห้วงมืด 2 [IMAX Edition]

เรื่องย่อ Star Trek: Into Darkness (2013) สตาร์ เทรค: ทะยานสู่ห้วงมืด 2 [IMAX Edition]

ภาพยนตร์บล็อคบัสเตอร์ เรื่องเยี่ยมของปีที่ไม่มีอะไรเปรียบได้กับคำว่า “น่าตื่นตาตื่นใจ” (ปีเตอร์ ทราวเวอร์ส, Rolling Stone)เมื่อวายร้ายจอมวางแผนผู้เหี้ยมโหดที่รู้จักกันในนาม ข่าน (เบเนดิคท์ คัมเบอร์แบทช์) ประกาศสงครามตัวต่อตัวกับสหพันธ์แกแล็กซี่ กัปตันเคิร์ก (คริส ไพน์), สป็อก (แซ็คคารี ควินโต) และลูกเรือผู้กล้าของยานยูเอสเอส เอ็นเตอร์ไพรซ์ จึงออกเดินทางเพื่อตามล่าอาชญากรที่อันตรายที่สุดเท่าที่เคยมีมาและพวกเขาต้องใช้อาวุธทุกอย่างที่มีเพื่อปกป้องโลกและทำลายแผนการคุกคามของข่านให้จงได้ ในผลงาน “แอ็คชั่นผจญภัยที่สร้างสรรค์และตื่นระทึก” ของเจ.เจ. อับรามส์

Complete name : [MINI Super-HQ]_Star.Trek.Into.Darkness.2013.IMAX.Edition.1080p.AC3.x264.One2loadup.com.mkv
Format : Matroska
Format version : Version 2
File size : 4.55 GiB
Duration : 2 h 12 min
Overall bit rate mode : Variable
Overall bit rate : 4 931 kb/s
Encoded date : UTC 2018-05-07 04:43:25
Writing application : mkvmerge v5.5.0 (‘Healer’) built on Apr 6 2012 21:43:24
Writing library : libebml v1.2.3 + libmatroska v1.3.0

Video
ID : 1
Format : AVC
Format/Info : Advanced Video Codec
Format profile : [email protected]
Format settings : CABAC / 4 Ref Frames
Format settings, CABAC : Yes
Format settings, ReFrames : 4 frames
Format settings, GOP : M=1, N=2
Muxing mode : Header stripping
Codec ID : V_MPEG4/ISO/AVC
Duration : 2 h 12 min
Bit rate mode : Variable
Bit rate : 3 553 kb/s
Maximum bit rate : 40.0 Mb/s
Width : 1 920 pixels
Height : 1 080 pixels
Display aspect ratio : 16:9
Frame rate mode : Constant
Frame rate : 23.976 (24000/1001) FPS
Color space : YUV
Chroma subsampling : 4:2:0
Bit depth : 8 bits
Scan type : Progressive
Bits/(Pixel*Frame) : 0.071
Stream size : 3.28 GiB (72%)
Title : ETRG
Default : Yes
Forced : No

Audio #1
ID : 2
Format : AC-3
Format/Info : Audio Coding 3
Commercial name : Dolby Digital
Muxing mode : Header stripping
Codec ID : A_AC3
Duration : 2 h 12 min
Bit rate mode : Constant
Bit rate : 640 kb/s
Channel(s) : 6 channels
Channel layout : L R C LFE Ls Rs
Sampling rate : 48.0 kHz
Frame rate : 31.250 FPS (1536 SPF)
Bit depth : 16 bits
Compression mode : Lossy
Stream size : 605 MiB (13%)
Language : Thai
Service kind : Complete Main
Default : No
Forced : No

Audio #2
ID : 3
Format : AC-3
Format/Info : Audio Coding 3
Commercial name : Dolby Digital
Muxing mode : Header stripping
Codec ID : A_AC3
Duration : 2 h 12 min
Bit rate mode : Constant
Bit rate : 640 kb/s
Channel(s) : 6 channels
Channel layout : L R C LFE Ls Rs
Sampling rate : 48.0 kHz
Frame rate : 31.250 FPS (1536 SPF)
Bit depth : 16 bits
Compression mode : Lossy
Stream size : 605 MiB (13%)
Language : English
Service kind : Complete Main
Default : Yes
Forced : No

Text #1
ID : 4
Format : VobSub
Muxing mode : zlib
Codec ID : S_VOBSUB
Codec ID/Info : Picture based subtitle format used on DVDs
Language : Thai
Default : No
Forced : No

Text #2
ID : 5
Format : VobSub
Muxing mode : zlib
Codec ID : S_VOBSUB
Codec ID/Info : Picture based subtitle format used on DVDs
Language : English
Default : Yes
Forced : No

Menu
00:00:00.000 : en:Chapter 1
00:10:20.369 : en:Chapter 2
00:19:21.493 : en:Chapter 3
00:30:03.968 : en:Chapter 4
00:40:09.115 : en:Chapter 5
00:46:05.262 : en:Chapter 6
00:56:38.228 : en:Chapter 7
01:06:35.783 : en:Chapter 8
01:12:55.662 : en:Chapter 9
01:22:45.752 : en:Chapter 10
01:30:54.740 : en:Chapter 11
01:38:36.368 : en:Chapter 12
01:47:09.548 : en:Chapter 13
01:54:17.141 : en:Chapter 14
01:59:20.653 : en:Chapter 15
02:03:18.307 : en:Chapter 16

DOWNLOAD


PART01 |||| PART02 |||| PART03 |||| PART04 |||| PART05

PART01 |||| PART02 |||| PART03 |||| PART04 |||| PART05

PART01 |||| PART02 |||| PART03 |||| PART04 |||| PART05

PART01 |||| PART02 |||| PART03 |||| PART04 |||| PART05


Leave A Reply

Your email address will not be published.

%d bloggers like this: