[MINI Super-HQ] Snow White and the Huntsman (2012) สโนว์ไวท์ & พรานป่า ในศึกมหัศจรรย์ ภาค 1 [1080p] [พากย์ไทย 5.1 + เสียงอังกฤษ DTS] [บรรยายไทย + อังกฤษ] [เสียงไทย + ซับไทย] [OPENLOAD]

0

Snow White and the Huntsman (2012)

โหลดหนัง  Snow White and the Huntsman (2012) สโนว์ไวท์ & พรานป่า ในศึกมหัศจรรย์ ภาค 1

Snow White and the Huntsman (2012) 2h 7min | Action, Adventure, Drama | 7 June 2012 (Netherlands) Summary: In a twist to the fairy tale, the Huntsman ordered to take Snow White into the woods to be killed winds up becoming her protector and mentor in a quest to vanquish the Evil Queen.
Countries: USA, UKLanguages: English

เรื่องย่อ Snow White and the Huntsman (2012) สโนว์ไวท์ & พรานป่า ในศึกมหัศจรรย์ ภาค 1

จากเทพนิยายคลาสสิกถูกนำมาปรับแต่งใหม่จนกลายมาเป็นภาพยนตร์แฟนตาซีฟอร์มใหญ่ที่มาพร้อมสโนว์ไวท์สไตล์แอ็คชั่น ที่ไม่ยอมปล่อยให้ราชินีราเวนนาผู้ร้ายกาจที่คิดจะกำจัดสโนว์ไวท์อยู่ฝ่ายเดียวสโนไวท์ สาวน้อยที่กระจกวิเศษบอกว่าเธอสวยกว่าราชินีแห่งความชั่วร้าย (แสดงโดย ชาร์ลิซ เธอรอน ดารายอดฝีมือระดับออสการ์) ดังนั้นการตามล่าทำลายล้างเจ้าหญิงสโนไวท์จึงเกิดขึ้น หลังจากโดนยึดเมืองไปสโนไวท์ก็ได้พบกับนายพรานป่า (แสดงโดย คริส เฮมส์เวิร์ธ จาก ธอร์ เทพเจ้าสายฟ้า) ที่ได้รับคำสั่งให้มาฆ่าเธอแต่เขากลับมาฝึกให้เธอต่อสู้เพื่อทวงบัลลังก์กลับคืน ส่วนของเจ้าชายหนุ่มรูปงามผู้ตกหลุมรักในความงามและความเก่งกาจของสโนไวท์ในเวอร์ชั่นนี้ แสดงโดย แซม คลาฟิน (จาก ไพเรทออฟดิคาริบเบียน: ออน สเตรนเจอร์ ไทด์)!!!

Complete name : [MINI Super-HQ]_Snow.White.and.the.Huntsman.2012.1080p.BrRip.DTS.x264.One2loadup.com.mkv
Format : Matroska
Format version : Version 4
File size : 3.83 GiB
Duration : 2 h 7 min
Overall bit rate : 4 318 kb/s
Movie name : [MINI Super-HQ]_Snow.White.and.the.Huntsman.2012.1080p.BrRip.DTS.x264.One2loadup.com
Encoded date : UTC 2010-02-22 21:41:31
Writing application : mkvmerge v5.9.0 (‘On The Loose’) built on Dec 9 2012 15:37:01
Writing library : libebml v1.3.0 + libmatroska v1.4.0

Video
ID : 1
Format : AVC
Format/Info : Advanced Video Codec
Format profile : [email protected]
Format settings : CABAC / 8 Ref Frames
Format settings, CABAC : Yes
Format settings, ReFrames : 8 frames
Codec ID : V_MPEG4/ISO/AVC
Duration : 2 h 7 min
Bit rate : 3 077 kb/s
Width : 1 920 pixels
Height : 816 pixels
Display aspect ratio : 2.35:1
Frame rate mode : Constant
Frame rate : 23.976 (24000/1001) FPS
Color space : YUV
Chroma subsampling : 4:2:0
Bit depth : 8 bits
Scan type : Progressive
Bits/(Pixel*Frame) : 0.082
Stream size : 2.69 GiB (70%)
Title : [MINI Super-HQ]_Snow.White.and.the.Huntsman.2012.1080p.BrRip.DTS.x264.One2loadup.com
Writing library : x264 core 146 r2538 121396c
Encoding settings : cabac=1 / ref=8 / deblock=1:-1:-1 / analyse=0x3:0x133 / me=tesa / subme=11 / psy=1 / psy_rd=1.00:0.15 / mixed_ref=1 / me_range=24 / chroma_me=1 / trellis=2 / 8x8dct=1 / cqm=0 / deadzone=21,11 / fast_pskip=1 / chroma_qp_offset=-3 / threads=9 / lookahead_threads=1 / sliced_threads=0 / nr=0 / decimate=1 / interlaced=0 / bluray_compat=0 / constrained_intra=0 / bframes=5 / b_pyramid=2 / b_adapt=2 / b_bias=0 / direct=3 / weightb=1 / open_gop=0 / weightp=2 / keyint=250 / keyint_min=23 / scenecut=40 / intra_refresh=0 / rc_lookahead=60 / rc=2pass / mbtree=1 / bitrate=3077 / ratetol=1.0 / qcomp=0.60 / qpmin=0 / qpmax=69 / qpstep=4 / cplxblur=20.0 / qblur=0.5 / ip_ratio=1.40 / aq=1:1.30
Language : English
Default : Yes
Forced : No

Audio #1
ID : 2
Format : DTS
Format/Info : Digital Theater Systems
Codec ID : A_DTS
Duration : 2 h 7 min
Bit rate mode : Constant
Bit rate : 755 kb/s
Channel(s) : 6 channels
Channel layout : C L R Ls Rs LFE
Sampling rate : 48.0 kHz
Frame rate : 93.750 FPS (512 SPF)
Bit depth : 24 bits
Compression mode : Lossy
Stream size : 686 MiB (17%)
Title : Eng DTS
Language : English
Default : Yes
Forced : Yes

Audio #2
ID : 3
Format : AC-3
Format/Info : Audio Coding 3
Commercial name : Dolby Digital
Codec ID : A_AC3
Duration : 2 h 7 min
Bit rate mode : Constant
Bit rate : 448 kb/s
Channel(s) : 6 channels
Channel layout : L R C LFE Ls Rs
Sampling rate : 48.0 kHz
Frame rate : 31.250 FPS (1536 SPF)
Bit depth : 16 bits
Compression mode : Lossy
Stream size : 407 MiB (10%)
Title : Thai Dolby 5.1 ch
Language : Thai
Service kind : Complete Main
Default : No
Forced : No

Text #1
ID : 4
Format : VobSub
Codec ID : S_VOBSUB
Codec ID/Info : Picture based subtitle format used on DVDs
Title : Thai Vob 480p
Language : Thai
Default : Yes
Forced : Yes

Text #2
ID : 5
Format : VobSub
Codec ID : S_VOBSUB
Codec ID/Info : Picture based subtitle format used on DVDs
Title : Thai Vob 720p
Language : Thai
Default : No
Forced : No

Text #3
ID : 6
Format : VobSub
Codec ID : S_VOBSUB
Codec ID/Info : Picture based subtitle format used on DVDs
Title : Thai Vob 1080p
Language : Thai
Default : No
Forced : No

Text #4
ID : 7
Format : PGS
Codec ID : S_HDMV/PGS
Codec ID/Info : Picture based subtitle format used on BDs/HD-DVDs
Title : Thai PGS
Language : Thai
Default : No
Forced : No

Text #5
ID : 8
Format : PGS
Codec ID : S_HDMV/PGS
Codec ID/Info : Picture based subtitle format used on BDs/HD-DVDs
Title : Eng PGS
Language : English
Default : No
Forced : No

Menu
00:00:00.000 : en:00:00:00.000
00:05:05.055 : en:00:05:05.055
00:10:26.793 : en:00:10:26.793
00:18:38.367 : en:00:18:38.367
00:26:35.969 : en:00:26:35.969
00:31:29.971 : en:00:31:29.971
00:36:54.003 : en:00:36:54.003
00:42:51.611 : en:00:42:51.611
00:48:13.808 : en:00:48:13.808
00:55:23.028 : en:00:55:23.028
00:59:13.717 : en:00:59:13.717
01:06:03.126 : en:01:06:03.126
01:10:41.696 : en:01:10:41.696
01:14:04.231 : en:01:14:04.231
01:24:02.162 : en:01:24:02.162
01:32:12.235 : en:01:32:12.235
01:39:19.036 : en:01:39:19.036
01:45:32.701 : en:01:45:32.701
01:49:25.976 : en:01:49:25.976
01:57:31.336 : en:01:57:31.336

DOWNLOAD


PART01 |||| PART02 |||| PART03 |||| PART04

PART01 |||| PART02 |||| PART03 |||| PART04

PART01 |||| PART02 |||| PART03 |||| PART04

PART01 |||| PART02 |||| PART03 |||| PART04


Leave A Reply

Your email address will not be published.

%d bloggers like this: