[MINI Super-HQ] Seventh Son (2014) เซเว่น ซัน บุตรคนที่ 7 จอมมหาเวทย์ [1080p] [พากย์ไทย DTS + เสียงอังกฤษ DTS] [บรรยายไทย + อังกฤษ] [เสียงไทย + ซับไทย] [OPENLOAD]

6

Seventh Son (2014)

โหลดหนัง  Seventh Son (2014) เซเว่น ซัน บุตรคนที่ 7 จอมมหาเวทย์

Seventh Son (2014) 1h 42min | Action, Adventure, Fantasy | 26 February 2015 (Netherlands) Summary: When Mother Malkin, the queen of evil witches, escapes the pit she was imprisoned in by professional monster hunter Spook decades ago and kills his apprentice, he recruits young Tom, the seventh son of the seventh son, to help him.
Countries: USA, UK, Canada, ChinaLanguages: English

เรื่องย่อ Seventh Son (2014) เซเว่น ซัน บุตรคนที่ 7 จอมมหาเวทย์

เล เจนดารี พิคเจอร์สและยูนิเวอร์แซล พิคเจอร์ส ส่งท้ายปีเก่าต้อนรับปีใหม่ ด้วยภาพยนตร์แอ็คชั่นผจญภัยเรื่อง Seventh Son บุตรคนที่ 7 สงครามมหาเวทย์ เรื่องราวในยุคแห่งเวทมนตร์เมื่อตำนานมาปะทะกับอาคมอัศวินจอมขมังเวทย์ หนึ่งเดียวที่เหลืออยู่ (เจฟฟ์ บริดเจส นักแสดงรางวัลออสการ์) จึงเดินทางตามหา ทอม เวิร์ด (เบน บาร์นส์) บุตรคนที่ 7 คนสุดท้าย วีรบุรุษตามคำพยากรณ์ ผู้ซึ่งเกิดมาพร้อมกับพลังพิเศ จากชีวิตเรียบง่ายในไร่นา ทอม เข้ามาสู่การผจญภัยสุดท้าทายพร้อมกับอัศวินจอมขมังเวทย์ผู้ฝึกฝนการต่อสู้ให้กับเขา เพื่อปราบราชินีสุดร้ายกาจ (จูลีแอนน์ มัวร์) และกองทัพนักฆ่าที่มีพลังเหนือธรรมชาติ ซึ่งถูกส่งมายังอาณาจักรของพวกเขา

Complete name : [MINI Super-HQ]_Seventh.Son.2014.1080p.BrRip.DTS.x264.One2loadup.com.mkv
Format : Matroska
Format version : Version 4
File size : 3.91 GiB
Duration : 1 h 41 min
Overall bit rate : 5 491 kb/s
Movie name : [MINI Super-HQ]_Seventh.Son.2014.1080p.BrRip.DTS.x264.One2loadup.com
Encoded date : UTC 2010-02-22 21:41:31
Writing application : mkvmerge v5.9.0 (‘On The Loose’) built on Dec 9 2012 15:37:01
Writing library : libebml v1.3.0 + libmatroska v1.4.0

Video
ID : 1
Format : AVC
Format/Info : Advanced Video Codec
Format profile : [email protected]
Format settings : CABAC / 4 Ref Frames
Format settings, CABAC : Yes
Format settings, ReFrames : 4 frames
Codec ID : V_MPEG4/ISO/AVC
Duration : 1 h 41 min
Bit rate : 3 909 kb/s
Width : 1 920 pixels
Height : 800 pixels
Display aspect ratio : 2.40:1
Frame rate mode : Constant
Frame rate : 23.976 (23976/1000) FPS
Color space : YUV
Chroma subsampling : 4:2:0
Bit depth : 8 bits
Scan type : Progressive
Bits/(Pixel*Frame) : 0.106
Stream size : 2.75 GiB (70%)
Title : [MINI Super-HQ]_Seventh.Son.2014.1080p.BrRip.DTS.x264.One2loadup.com
Writing library : x264 core 130 r2273 b3065e6
Encoding settings : cabac=1 / ref=4 / deblock=1:0:0 / analyse=0x3:0x113 / me=umh / subme=11 / psy=1 / psy_rd=1.00:0.00 / mixed_ref=1 / me_range=48 / chroma_me=1 / trellis=2 / 8x8dct=1 / cqm=0 / deadzone=21,11 / fast_pskip=1 / chroma_qp_offset=-2 / threads=12 / lookahead_threads=1 / sliced_threads=0 / nr=0 / decimate=1 / interlaced=0 / bluray_compat=0 / constrained_intra=0 / bframes=4 / b_pyramid=2 / b_adapt=2 / b_bias=0 / direct=1 / weightb=1 / open_gop=0 / weightp=2 / keyint=240 / keyint_min=24 / scenecut=40 / intra_refresh=0 / rc_lookahead=40 / rc=2pass / mbtree=1 / bitrate=3909 / ratetol=1.0 / qcomp=0.60 / qpmin=0 / qpmax=69 / qpstep=4 / cplxblur=20.0 / qblur=0.5 / ip_ratio=1.40 / aq=1:1.00
Language : English
Default : Yes
Forced : No
Color range : Limited
Color primaries : BT.709
Transfer characteristics : BT.709
Matrix coefficients : BT.709

Audio #1
ID : 2
Format : DTS
Format/Info : Digital Theater Systems
Codec ID : A_DTS
Duration : 1 h 41 min
Bit rate mode : Constant
Bit rate : 768 kb/s
Channel(s) : 6 channels
Channel layout : C L R Ls Rs LFE
Sampling rate : 48.0 kHz
Frame rate : 93.750 FPS (512 SPF)
Bit depth : 24 bits
Compression mode : Lossy
Stream size : 560 MiB (14%)
Title : Thai DTS BluRay Master
Language : Thai
Default : Yes
Forced : Yes

Audio #2
ID : 3
Format : DTS
Format/Info : Digital Theater Systems
Codec ID : A_DTS
Duration : 1 h 41 min
Bit rate mode : Constant
Bit rate : 755 kb/s
Channel(s) : 6 channels
Channel layout : C L R Ls Rs LFE
Sampling rate : 48.0 kHz
Frame rate : 93.750 FPS (512 SPF)
Bit depth : 24 bits
Compression mode : Lossy
Stream size : 550 MiB (14%)
Title : English DTS
Language : English
Default : No
Forced : No

Text #1
ID : 4
Format : VobSub
Codec ID : S_VOBSUB
Codec ID/Info : Picture based subtitle format used on DVDs
Title : Thai 480p
Language : Thai
Default : No
Forced : No

Text #2
ID : 5
Format : VobSub
Codec ID : S_VOBSUB
Codec ID/Info : Picture based subtitle format used on DVDs
Title : Thai 720p
Language : Thai
Default : No
Forced : No

Text #3
ID : 6
Format : VobSub
Codec ID : S_VOBSUB
Codec ID/Info : Picture based subtitle format used on DVDs
Title : Thai 1080p BluRay Master
Language : Thai
Default : Yes
Forced : Yes

Text #4
ID : 7
Format : VobSub
Codec ID : S_VOBSUB
Codec ID/Info : Picture based subtitle format used on DVDs
Title : Thai 1080p Out
Language : Thai
Default : No
Forced : No

Text #5
ID : 8
Format : VobSub
Codec ID : S_VOBSUB
Codec ID/Info : Picture based subtitle format used on DVDs
Title : Thai 1080p BIG
Language : Thai
Default : No
Forced : No

Text #6
ID : 9
Format : VobSub
Codec ID : S_VOBSUB
Codec ID/Info : Picture based subtitle format used on DVDs
Title : Thai 1080p Out [BIG]
Language : Thai
Default : No
Forced : No

Text #7
ID : 10
Format : PGS
Codec ID : S_HDMV/PGS
Codec ID/Info : Picture based subtitle format used on BDs/HD-DVDs
Title : Thai PGS
Language : Thai
Default : No
Forced : No

Text #8
ID : 11
Format : PGS
Codec ID : S_HDMV/PGS
Codec ID/Info : Picture based subtitle format used on BDs/HD-DVDs
Title : Thai PGS Out
Language : Thai
Default : No
Forced : No

Text #9
ID : 12
Format : VobSub
Codec ID : S_VOBSUB
Codec ID/Info : Picture based subtitle format used on DVDs
Title : English
Language : English
Default : No
Forced : No

Menu
00:00:00.000 : en:Chapter 1
00:04:50.415 : en:Chapter 2
00:10:28.669 : en:Chapter 3
00:16:40.583 : en:Chapter 4
00:22:40.359 : en:Chapter 5
00:27:40.451 : en:Chapter 6
00:30:17.691 : en:Chapter 7
00:36:45.203 : en:Chapter 8
00:42:37.471 : en:Chapter 9
00:49:54.825 : en:Chapter 10
00:54:45.115 : en:Chapter 11
00:57:48.548 : en:Chapter 12
01:02:53.145 : en:Chapter 13
01:06:53.968 : en:Chapter 14
01:11:29.285 : en:Chapter 15
01:18:37.046 : en:Chapter 16
01:22:10.301 : en:Chapter 17
01:25:32.669 : en:Chapter 18
01:30:15.076 : en:Chapter 19
01:33:21.096 : en:Chapter 20

DOWNLOAD


PART01 |||| PART02 |||| PART03 |||| PART04

PART01 |||| PART02 |||| PART03 |||| PART04

PART01 |||| PART02 |||| PART03 |||| PART04

PART01 |||| PART02 |||| PART03 |||| PART04


6 Comments
  1. กันต์ says

    โหลดแล้วไม่มีเสียงครับ

    1. Admin
      Admin says

      เปิดในไหนฮ๊ะ

      1. กันต์ says

        ผมเปิดในnote book โดยใช้โปรแกรม Movies & TV ของ windows 10 ครับ ซึ่งหนังตัวอื่นก็ไม่มีปัญหาอะไร แต่ผมเจอข้อสังเกตข้อหนึ่งครับ คือในmegaupload past4 มันขึ้นว่าให็โหลดไฟล์ขนาด977.99ครับแต่พอกดโหลดกลับโหลดได้แค่933ครับผลเลยคิดว่าที่เสียงไม่มีเพราะไฟล์หรือป่าว

        1. Admin
          Admin says

          ไม่ใช่ฮ๊ะ ถ้าเปิดในโปรแกรมคอมที่แถมมากับ windows เปิดไม่ได้แน่นอนฮ๊ะ แนะนำใช้โปรแกรมอื่น เช่น vlc ในการเปิดไฟล์ฮ๊ะ เนื่องจากเสียงเป็นแบบ DTS เน้อ

          1. กันต์ says

            อ๋อ เข้าใจละ

  2. กันต์ says

    เปิดในnotebook โปรมแกรม movie&TVของ windows 10 ครับ

Leave A Reply

Your email address will not be published.

%d bloggers like this: