[MINI Super-HQ] Rush (2013) อัดเต็มสปีด [1080p] [พากย์ไทย DTS + เสียงอังกฤษ 5.1] [บรรยายไทย + อังกฤษ] [เสียงไทย + ซับไทย] [PANDAFILE]

0

Rush (2013)

โหลดหนัง Rush (2013) อัดเต็มสปีด

Rush: Alles für den Sieg (2013) 2h 3min | Biography, Drama, Sport | 3 October 2013 (Germany) Summary: The merciless 1970s rivalry between Formula One rivals James Hunt and Niki Lauda.
Countries: UK, Germany, USALanguages: English, German, Italian, French, Spanish

เรื่องย่อ Rush (2013) อัดเต็มสปีด

ถ่ายทอดเรื่องราวในปี 1976 ที่สองนักขับรถสูตรหนึ่งในตำนานต่างช่วงชิงการเป็นเจ้าสนาม ที่หมายถึงเกียรติยศและศักดิ์ศรีของทั้งคู่ เรื่องราวเกิดขึ้นในทศวรรษที่ 70 ยุคทองของการแข่งขันรถฟอร์มูล่าวัน มีนักขับเพียงสองคนที่ผลัดกันชนะจนมีคะแนนไล่เลี่ยกัน นั่นก็คือ เจมส์ ฮันท์ (คริส เฮมส์เวิร์ส จาก The Avengers และ Thor) นักขับชาวอังกฤษผู้เปี่ยมไปด้วยเสน่ห์ มั่นใจในตัวเอง และไม่กลัวตาย ถ้าผลลัพธ์แลกมาด้วยชัยชนะ และ นิกิ เลาดา (แดเนียล บรูห์ จาก Inglorious Basterds) นักขับชาวออสเตรียผู้ที่เปี่ยมไปด้วยพรสวรรค์ในการขับ และต้องการความสมบูรณ์แบบตลอดเวลา ด้วยความแตกต่างในทัศนคติและแนวคิดของ ฮันท์ และ เลาดา ทำให้พวกเขาต้องปะทะกันไม่เพียงแต่ในสนามแข่งรถ แต่ยังรวมถึงชีวิตส่วนตัว ที่ผลักดันพวกเขาไปสู่จุดแตกหักทั้งสภาพร่างกายและจิตใจ ที่นี่ไม่มีเส้นทางลัดสู่ชัยชนะ หรือช่องว่างสำหรับความผิดพลาด และผู้ที่ยืนอยู่จุดสูงสุดก็มีได้เพียงแค่คนเดียว!!!

Complete name : [MINI Super-HQ]_Rush.2013.1080p.BrRip.DTS.x264.One2loadup.com.mkv
Format : Matroska
Format version : Version 4
File size : 4.31 GiB
Duration : 2 h 2 min
Overall bit rate : 5 025 kb/s
Movie name : [MINI Super-HQ]_Rush.2013.1080p.BrRip.DTS.x264.One2loadup.com
Encoded date : UTC 2010-02-22 21:41:31
Writing application : mkvmerge v5.9.0 (‘On The Loose’) built on Dec 9 2012 15:37:01
Writing library : libebml v1.3.0 + libmatroska v1.4.0

Video
ID : 1
Format : AVC
Format/Info : Advanced Video Codec
Format profile : [email protected]
Format settings : CABAC / 4 Ref Frames
Format settings, CABAC : Yes
Format settings, ReFrames : 4 frames
Codec ID : V_MPEG4/ISO/AVC
Duration : 2 h 2 min
Bit rate : 3 633 kb/s
Width : 1 920 pixels
Height : 800 pixels
Display aspect ratio : 2.40:1
Frame rate mode : Constant
Frame rate : 23.976 (24000/1001) FPS
Color space : YUV
Chroma subsampling : 4:2:0
Bit depth : 8 bits
Scan type : Progressive
Bits/(Pixel*Frame) : 0.099
Stream size : 3.19 GiB (74%)
Title : [MINI Super-HQ]_Rush.2013.1080p.BrRip.DTS.x264.One2loadup.com
Writing library : x264 core 133 r2334 a3ac64b
Encoding settings : cabac=1 / ref=5 / deblock=1:-1:-1 / analyse=0x3:0x133 / me=umh / subme=11 / psy=1 / psy_rd=1.00:0.10 / mixed_ref=1 / me_range=24 / chroma_me=1 / trellis=2 / 8x8dct=1 / cqm=0 / deadzone=21,11 / fast_pskip=1 / chroma_qp_offset=-5 / threads=12 / lookahead_threads=1 / sliced_threads=0 / nr=0 / decimate=1 / interlaced=0 / bluray_compat=0 / constrained_intra=0 / bframes=5 / b_pyramid=1 / b_adapt=2 / b_bias=0 / direct=3 / weightb=1 / open_gop=0 / weightp=2 / keyint=240 / keyint_min=23 / scenecut=40 / intra_refresh=0 / rc_lookahead=60 / rc=2pass / mbtree=1 / bitrate=3633 / ratetol=1.0 / qcomp=0.60 / qpmin=0 / qpmax=69 / qpstep=4 / cplxblur=20.0 / qblur=0.5 / vbv_maxrate=50000 / vbv_bufsize=50000 / nal_hrd=none / ip_ratio=1.40 / aq=1:1.00
Language : English
Default : Yes
Forced : No

Audio #1
ID : 2
Format : DTS
Format/Info : Digital Theater Systems
Codec ID : A_DTS
Duration : 2 h 2 min
Bit rate mode : Constant
Bit rate : 755 kb/s
Channel(s) : 6 channels
Channel layout : C L R Ls Rs LFE
Sampling rate : 48.0 kHz
Frame rate : 93.750 FPS (512 SPF)
Bit depth : 24 bits
Compression mode : Lossy
Stream size : 662 MiB (15%)
Title : Thai DTS by Junjao
Language : Thai
Default : Yes
Forced : Yes

Audio #2
ID : 3
Format : AC-3
Format/Info : Audio Coding 3
Commercial name : Dolby Digital
Codec ID : A_AC3
Duration : 2 h 2 min
Bit rate mode : Constant
Bit rate : 448 kb/s
Channel(s) : 6 channels
Channel layout : L R C LFE Ls Rs
Sampling rate : 48.0 kHz
Frame rate : 31.250 FPS (1536 SPF)
Bit depth : 16 bits
Compression mode : Lossy
Stream size : 393 MiB (9%)
Title : English
Language : English
Service kind : Complete Main
Default : No
Forced : No

Text #1
ID : 4
Format : VobSub
Codec ID : S_VOBSUB
Codec ID/Info : Picture based subtitle format used on DVDs
Title : Thai 480p From DVD Master
Language : Thai
Default : No
Forced : No

Text #2
ID : 5
Format : VobSub
Codec ID : S_VOBSUB
Codec ID/Info : Picture based subtitle format used on DVDs
Title : Thai 720p
Language : Thai
Default : No
Forced : No

Text #3
ID : 6
Format : VobSub
Codec ID : S_VOBSUB
Codec ID/Info : Picture based subtitle format used on DVDs
Title : Thai 1080p
Language : Thai
Default : No
Forced : No

Text #4
ID : 7
Format : VobSub
Codec ID : S_VOBSUB
Codec ID/Info : Picture based subtitle format used on DVDs
Title : Thai 1080p Yellow
Language : Thai
Default : No
Forced : No

Text #5
ID : 8
Format : VobSub
Codec ID : S_VOBSUB
Codec ID/Info : Picture based subtitle format used on DVDs
Title : Thai 1080p Out
Language : Thai
Default : Yes
Forced : Yes

Text #6
ID : 9
Format : VobSub
Codec ID : S_VOBSUB
Codec ID/Info : Picture based subtitle format used on DVDs
Title : Thai 1080p BIG
Language : Thai
Default : No
Forced : No

Text #7
ID : 10
Format : VobSub
Codec ID : S_VOBSUB
Codec ID/Info : Picture based subtitle format used on DVDs
Title : Thai 1080p Out [BIG]
Language : Thai
Default : No
Forced : No

Text #8
ID : 11
Format : PGS
Codec ID : S_HDMV/PGS
Codec ID/Info : Picture based subtitle format used on BDs/HD-DVDs
Title : Thai PGS
Language : Thai
Default : No
Forced : No

Text #9
ID : 12
Format : PGS
Codec ID : S_HDMV/PGS
Codec ID/Info : Picture based subtitle format used on BDs/HD-DVDs
Title : Thai PGS Yellow
Language : Thai
Default : No
Forced : No

Text #10
ID : 13
Format : PGS
Codec ID : S_HDMV/PGS
Codec ID/Info : Picture based subtitle format used on BDs/HD-DVDs
Title : Thai PGS Out
Language : Thai
Default : No
Forced : No

Text #11
ID : 14
Format : UTF-8
Codec ID : S_TEXT/UTF8
Codec ID/Info : UTF-8 Plain Text
Title : English
Language : English
Default : No
Forced : No

Menu
00:00:00.000 : en:00:00:00.000
00:12:17.028 : en:00:12:17.028
00:21:58.150 : en:00:21:58.150
00:28:46.725 : en:00:28:46.725
00:40:03.192 : en:00:40:03.192
00:48:00.211 : en:00:48:00.211
00:59:03.874 : en:00:59:03.874
01:05:39.769 : en:01:05:39.769
01:19:03.948 : en:01:19:03.948
01:29:31.366 : en:01:29:31.366
01:42:21.635 : en:01:42:21.635
01:46:42.396 : en:01:46:42.396

DOWNLOAD


PART01 |||| PART02 |||| PART03 |||| PART04 |||| PART05

PART01 |||| PART02 |||| PART03 |||| PART04 |||| PART05

PART01 |||| PART02 |||| PART03 |||| PART04 |||| PART05

PART01 |||| PART02 |||| PART03 |||| PART04 |||| PART05


Leave A Reply

Your email address will not be published.

%d bloggers like this: