[MINI Super-HQ] Rurouni Kenshin (2012) รูโรนิ เคนชิน คนจริง โคตรซามูไร ภาค 1 [1080p] [พากย์ไทย 5.1 + เสียงญี่ปุ่น DTS] [บรรยายไทย + อังกฤษ] [เสียงไทย + ซับไทย] [OPENLOAD]

2

Rurouni Kenshin (2012) รูโรนิ เคนชิน คนจริง โคตรซามูไร ภาค 1

โหลดหนัง Rurouni Kenshin (2012) รูโรนิ เคนชิน คนจริง โคตรซามูไร ภาค 1

Rurôni Kenshin: Meiji kenkaku roman tan (2012) 2h 14min | Action, Drama, History | 25 August 2012 (Japan) Summary: A former assassin who has resolved to never kill again has his vow sorely tested.
Countries: JapanLanguages: Japanese

เรื่องย่อ Rurouni Kenshin (2012) รูโรนิ เคนชิน คนจริง โคตรซามูไร ภาค 1

ภาพยนตร์ที่สร้างมาจากการ์ตูนชื่อดังที่ทุกคนต้องรู้ จักอย่าง Samurai X เรื่องราวเกิดขึ้นในสมัยเมจิ ซึ่งระบอบศักดินาของญี่ปุ่นล่มสลาย ชายหนุ่มพเนจรที่มีชื่อว่า ฮิมุระ เคนชิน (ทาเครุ ซาโต้) ผู้มีอดีตเคยเป็นนักฆ่าผู้โด่งดังนามว่า ฮิโตคิริ บัตโตะไซ ภายหลังจากสงครามสิ้นสุดลง เขาเดินทางร่อนเร่ไปยังเมืองต่างๆ ตามชนบท เสนอตัวที่จะใช้ทักษะของเขาในการปกป้องผู้คน เพื่อเป็นการไถ่บาปให้กับหลายชีวิตที่เขาเคยฆ่าทิ้งไ ปและปฏิญาณกับตนเองว่า จะไม่มีทางคร่าชีวิตผู้อื่นอีก แต่เมื่อบรรดาผู้คนที่เขารักถูกทำร้ายและทรมาน เคนชินต้องเลือกว่าจะยอมเผชิญหน้ากับอดีตอันดำมืดของ เขาหรือไม่ เพื่อช่วยเหลือผู้คนเหล่านั้น

Complete name : [MINI Super-HQ]_Rurouni.Kenshin.2012.BluRay.1080p.DTS.x264.One2loadup.com.mkv
Format : Matroska
Format version : Version 4 / Version 2
File size : 4.27 GiB
Duration : 2 h 14 min
Overall bit rate mode : Variable
Overall bit rate : 4 547 kb/s
Encoded date : UTC 2010-02-22 21:41:31
Writing application : mkvmerge v5.9.0 (‘On The Loose’) built on Dec 9 2012 15:37:01
Writing library : libebml v1.3.0 + libmatroska v1.4.0

Video
ID : 1
Format : AVC
Format/Info : Advanced Video Codec
Format profile : [email protected]
Format settings : CABAC / 4 Ref Frames
Format settings, CABAC : Yes
Format settings, ReFrames : 4 frames
Codec ID : V_MPEG4/ISO/AVC
Duration : 2 h 14 min
Bit rate mode : Variable
Bit rate : 3 300 kb/s
Maximum bit rate : 100.0 Mb/s
Width : 1 920 pixels
Height : 800 pixels
Display aspect ratio : 2.40:1
Frame rate mode : Constant
Frame rate : 23.976 (23976/1000) FPS
Color space : YUV
Chroma subsampling : 4:2:0
Bit depth : 8 bits
Scan type : Progressive
Bits/(Pixel*Frame) : 0.090
Stream size : 3.06 GiB (72%)
Title : [MINI Super-HQ]_Rurouni.Kenshin.2012.BluRay.1080p.DTS.x264.One2loadup.com
Writing library : x264 core 116 r2044 392e762
Encoding settings : cabac=1 / ref=5 / deblock=1:0:0 / analyse=0x3:0x113 / me=umh / subme=10 / psy=1 / psy_rd=1.00:0.15 / mixed_ref=1 / me_range=24 / chroma_me=1 / trellis=2 / 8x8dct=1 / cqm=0 / deadzone=21,11 / fast_pskip=1 / chroma_qp_offset=-3 / threads=6 / sliced_threads=0 / nr=0 / decimate=1 / interlaced=0 / bluray_compat=0 / constrained_intra=0 / bframes=8 / b_pyramid=1 / b_adapt=2 / b_bias=0 / direct=3 / weightb=1 / open_gop=0 / weightp=2 / keyint=250 / keyint_min=24 / scenecut=40 / intra_refresh=0 / rc_lookahead=60 / rc=2pass / mbtree=1 / bitrate=3300 / ratetol=1.0 / qcomp=0.60 / qpmin=0 / qpmax=69 / qpstep=4 / cplxblur=20.0 / qblur=0.5 / vbv_maxrate=99999 / vbv_bufsize=99999 / nal_hrd=vbr / ip_ratio=1.40 / aq=1:1.00
Language : Japanese
Default : No
Forced : No

Audio #1
ID : 2
Format : AC-3
Format/Info : Audio Coding 3
Codec ID : A_AC3
Duration : 2 h 14 min
Bit rate mode : Constant
Bit rate : 448 kb/s
Channel(s) : 6 channels
Channel positions : Front: L C R, Side: L R, LFE
Sampling rate : 48.0 kHz
Frame rate : 31.250 FPS (1536 SPF)
Bit depth : 16 bits
Compression mode : Lossy
Stream size : 431 MiB (10%)
Title : [THAI AC3 FROM DVD MASTER]
Language : Thai
Service kind : Complete Main
Default : No
Forced : No

Audio #2
ID : 3
Format : DTS
Format/Info : Digital Theater Systems
Codec ID : A_DTS
Duration : 2 h 14 min
Bit rate mode : Constant
Bit rate : 755 kb/s
Channel(s) : 6 channels
Channel positions : Front: L C R, Side: L R, LFE
Sampling rate : 48.0 kHz
Frame rate : 93.750 FPS (512 SPF)
Bit depth : 24 bits
Compression mode : Lossy
Stream size : 726 MiB (17%)
Title : JPN DTS
Language : Japanese
Default : Yes
Forced : No

Text #1
ID : 4
Format : VobSub
Codec ID : S_VOBSUB
Codec ID/Info : Picture based subtitle format used on DVDs
Title : [SUB THAI 480P FROM DVD MASTER] Freesia UPC
Language : Thai
Default : Yes
Forced : No

Text #2
ID : 5
Format : VobSub
Codec ID : S_VOBSUB
Codec ID/Info : Picture based subtitle format used on DVDs
Title : [SUB THAI 480P FROM DVD MASTER] Angsana UPC
Language : Thai
Default : No
Forced : No

Text #3
ID : 6
Format : VobSub
Codec ID : S_VOBSUB
Codec ID/Info : Picture based subtitle format used on DVDs
Title : [SUB THAI 480P FROM DVD MASTER] Freesia UPC UNDER
Language : Thai
Default : No
Forced : No

Text #4
ID : 7
Format : VobSub
Codec ID : S_VOBSUB
Codec ID/Info : Picture based subtitle format used on DVDs
Title : [SUB THAI 1080P FROM DVD MASTER] Angsana UPC
Language : Thai
Default : No
Forced : No

Text #5
ID : 8
Format : PGS
Codec ID : S_HDMV/PGS
Codec ID/Info : Picture based subtitle format used on BDs/HD-DVDs
Title : THAI PGS TH Sarabun
Language : Thai
Default : No
Forced : No

Text #6
ID : 9
Format : PGS
Codec ID : S_HDMV/PGS
Codec ID/Info : Picture based subtitle format used on BDs/HD-DVDs
Title : THAI PGS Angsana UPC
Language : Thai
Default : No
Forced : No

Text #7
ID : 10
Format : UTF-8
Codec ID : S_TEXT/UTF8
Codec ID/Info : UTF-8 Plain Text
Title : ENG SRT
Language : English
Default : No
Forced : No

DOWNLOAD


PART01 |||| PART02 |||| PART03 |||| PART04 |||| PART05

PART01 |||| PART02 |||| PART03 |||| PART04 |||| PART05

PART01 |||| PART02 |||| PART03 |||| PART04 |||| PART05

PART01 |||| PART02 |||| PART03 |||| PART04 |||| PART05


2 Comments
  1. Montri Thepsawong
    Montri Thepsawong says

    โหลดไม่ได้ครับ ช่วยแก้ด้วยครับ^^

    1. Admin
      Admin says

      แก้ไขเรียบร้อยฮ๊ะ

Leave A Reply

Your email address will not be published.

%d bloggers like this: