[MINI Super-HQ] Rurouni Kenshin 2: Kyoto Inferno (2014) รูโรนิ เคนชิน เกียวโตทะเลเพลิง ภาค 2 [1080p] [พากย์ไทย 5.1 + ญี่ปุ่น DTS] [บรรยายไทย + อังกฤษ] [เสียงไทย + ซับไทย] [PANDAFILE]

2

โหลดหนัง Rurouni Kenshin 2: Kyoto Inferno (2014) รูโรนิ เคนชิน เกียวโตทะเลเพลิง ภาค 2

Rurôni Kenshin: Kyôto taika-hen (2014) 2h 18min | Action, Adventure, Drama | 1 August 2014 (Japan) Summary: Kenshin Himura goes up against pure evil Makoto Shishio who is attempting to overthrow the Meiji government. The fate of the country hangs in the balance as Kenshin Himura takes up the sword that he vowed to never draw again.
Countries: JapanLanguages: Japanese

เรื่องย่อ Rurouni Kenshin 2: Kyoto Inferno (2014) รูโรนิ เคนชิน เกียวโตทะเลเพลิง ภาค 2

ภายหลังจากความสำเร็จแบบถล่มทลายของภาพยนตร์ในภาคแรก ที่กวาดรายได้ไปทั่วโลก กว่า 6พันล้านเยน ซามูไรหนุ่ม ฮิมูระ เคนชิน ผู้ กำลังจะกลับมาอีกครั้งพร้อมกับดาบคู่ใจของเขา ที่ขอสาบานว่าจะไม่ยอมให้เปื้อนเลือดของใครอีก! หลาย เดือนหลังการต่อสู้ระหว่างเคนชิน (ทาเครุ ซาโต้) และอุโด้ จินเอได้จบสิ้นลง บ้านเมืองก็เริ่มกลับคืนสู่ความสงบ แต่สันติสุขก็คงอยู่ไม่ได้นานนัก เมื่อศัตรูตัวฉกาจอย่าง ชิชิโอ มาโคตะ (ทัตสิยะ ฟุจิวาร่า) และลูกสมุนนามว่ากลุ่ม จุปปงกาตานะ ได้วางแผนที่จะโค่นล้มรัฐบาลเมจิและยึดครองประเทศญี่ปุ่น เคยชินจะตัดสินใจอย่างไร เมื่อมีเพียงเขาคนเดียวที่ต่อกรกับเหล่าวายร้ายกลุ่มนี้ได้

Complete name : [MINI Super-HQ]_Rurouni.Kenshin.2.Kyoto.Inferno.2014.BluRay.1080p.DTS.x264.One2loadup.com.mkv
Format : Matroska
Format version : Version 4 / Version 2
File size : 4.33 GiB
Duration : 2 h 18 min
Overall bit rate mode : Variable
Overall bit rate : 4 468 kb/s
Movie name : [MINI Super-HQ]_Rurouni.Kenshin.2.Kyoto.Inferno.2014.BluRay.1080p.DTS.x264.One2loadup.com
Encoded date : UTC 2015-01-28 08:03:07
Writing application : mkvmerge v6.2.0 (‘Promised Land’) built on Apr 28 2013 12:22:01
Writing library : libebml v1.3.0 + libmatroska v1.4.0

Video
ID : 1
Format : AVC
Format/Info : Advanced Video Codec
Format profile : [email protected]
Format settings : CABAC / 4 Ref Frames
Format settings, CABAC : Yes
Format settings, ReFrames : 4 frames
Codec ID : V_MPEG4/ISO/AVC
Duration : 2 h 18 min
Bit rate mode : Variable
Bit rate : 3 200 kb/s
Maximum bit rate : 100.0 Mb/s
Width : 1 920 pixels
Height : 804 pixels
Display aspect ratio : 2.40:1
Frame rate mode : Constant
Frame rate : 23.976 FPS
Color space : YUV
Chroma subsampling : 4:2:0
Bit depth : 8 bits
Scan type : Progressive
Bits/(Pixel*Frame) : 0.086
Stream size : 3.08 GiB (71%)
Title : [MINI Super-HQ]_Rurouni.Kenshin.2.Kyoto.Inferno.2014.BluRay.1080p.DTS.x264.One2loadup.com
Writing library : x264 core 130 r2273 b3065e6
Encoding settings : cabac=1 / ref=4 / deblock=1:0:0 / analyse=0x3:0x133 / me=umh / subme=11 / psy=1 / psy_rd=1.00:0.15 / mixed_ref=1 / me_range=64 / chroma_me=1 / trellis=2 / 8x8dct=1 / cqm=0 / deadzone=21,11 / fast_pskip=1 / chroma_qp_offset=-3 / threads=20 / lookahead_threads=2 / sliced_threads=0 / nr=0 / decimate=1 / interlaced=0 / bluray_compat=0 / constrained_intra=0 / bframes=4 / b_pyramid=2 / b_adapt=2 / b_bias=0 / direct=3 / weightb=1 / open_gop=0 / weightp=2 / keyint=250 / keyint_min=23 / scenecut=40 / intra_refresh=0 / rc_lookahead=100 / rc=2pass / mbtree=1 / bitrate=3200 / ratetol=1.0 / qcomp=0.60 / qpmin=0 / qpmax=69 / qpstep=4 / cplxblur=20.0 / qblur=0.5 / vbv_maxrate=99999 / vbv_bufsize=99999 / nal_hrd=vbr / ip_ratio=1.40 / aq=1:1.00
Language : Japanese
Default : Yes
Forced : No

Audio #1
ID : 2
Format : AC-3
Format/Info : Audio Coding 3
Codec ID : A_AC3
Duration : 2 h 18 min
Bit rate mode : Constant
Bit rate : 448 kb/s
Channel(s) : 6 channels
Channel positions : Front: L C R, Side: L R, LFE
Sampling rate : 48.0 kHz
Frame rate : 31.250 FPS (1536 SPF)
Bit depth : 16 bits
Compression mode : Lossy
Stream size : 444 MiB (10%)
Title : [THAI AC3 FROM DVD MASTER]
Language : Thai
Service kind : Complete Main
Default : Yes
Forced : No

Audio #2
ID : 3
Format : DTS
Format/Info : Digital Theater Systems
Codec ID : A_DTS
Duration : 2 h 18 min
Bit rate mode : Constant
Bit rate : 755 kb/s
Channel(s) : 6 channels
Channel positions : Front: L C R, Side: L R, LFE
Sampling rate : 48.0 kHz
Frame rate : 93.750 FPS (512 SPF)
Bit depth : 24 bits
Compression mode : Lossy
Stream size : 749 MiB (17%)
Title : Japan DTS
Language : Japanese
Default : No
Forced : No

Text #1
ID : 4
Format : VobSub
Codec ID : S_VOBSUB
Codec ID/Info : Picture based subtitle format used on DVDs
Title : [SUB THAI 480P FROM DVD MASTER] Freesia UPC
Language : Thai
Default : No
Forced : No

Text #2
ID : 5
Format : VobSub
Codec ID : S_VOBSUB
Codec ID/Info : Picture based subtitle format used on DVDs
Title : [SUB THAI 480P FROM DVD MASTER] Angsana UPC
Language : Thai
Default : No
Forced : No

Text #3
ID : 6
Format : VobSub
Codec ID : S_VOBSUB
Codec ID/Info : Picture based subtitle format used on DVDs
Title : [SUB THAI 1080P FROM DVD MASTER] TH Sarabun
Language : Thai
Default : No
Forced : No

Text #4
ID : 7
Format : PGS
Codec ID : S_HDMV/PGS
Codec ID/Info : Picture based subtitle format used on BDs/HD-DVDs
Title : THAI PGS TH Sarabun
Language : Thai
Default : No
Forced : No

Text #5
ID : 8
Format : PGS
Codec ID : S_HDMV/PGS
Codec ID/Info : Picture based subtitle format used on BDs/HD-DVDs
Title : THAI PGS Angsana UPC
Language : Thai
Default : No
Forced : No

Text #6
ID : 9
Format : PGS
Codec ID : S_HDMV/PGS
Codec ID/Info : Picture based subtitle format used on BDs/HD-DVDs
Title : THAI PGS TH Sarabun UNDER
Language : Thai
Default : No
Forced : No

Text #7
ID : 10
Format : UTF-8
Codec ID : S_TEXT/UTF8
Codec ID/Info : UTF-8 Plain Text
Title : eng srt
Language : English
Default : No
Forced : No

DOWNLOAD


PART01 |||| PART02 |||| PART03 |||| PART04 |||| PART05

PART01 |||| PART02 |||| PART03 |||| PART04 |||| PART05

PART01 |||| PART02 |||| PART03 |||| PART04 |||| PART05

PART01 |||| PART02 |||| PART03 |||| PART04 |||| PART05


2 Comments
  1. Montri Thepsawong
    Montri Thepsawong says

    โหลดไม่ได้ครับ ช่วยแก้ด้วยครับ^^

    1. Admin
      Admin says

      แก้ไขเรียบร้อยฮ๊ะ

Disable Comments
%d bloggers like this: