[MINI Super-HQ] Ratatouille (2007) ระ-ทะ-ทู-อี่ พ่อครัวตัวจี๊ด หัวใจคับโลก [1080p] [พากย์ไทย 5.1 + เสียงอังกฤษ 5.1] [บรรยายไทย + อังกฤษ] [เสียงไทย + ซับไทย] [OPENLOAD]

0

Ratatouille (2007) ระ-ทะ-ทู-อี่ พ่อครัวตัวจี๊ด หัวใจคับโลก

โหลดหนัง Ratatouille (2007) ระ-ทะ-ทู-อี่ พ่อครัวตัวจี๊ด หัวใจคับโลก

Ratatouille (2007) 1h 51min | Animation, Adventure, Comedy | 1 August 2007 (Netherlands) Summary: A rat who can cook makes an unusual alliance with a young kitchen worker at a famous restaurant.
Countries: USALanguages: English, French

เรื่องย่อ Ratatouille (2007) ระ-ทะ-ทู-อี่ พ่อครัวตัวจี๊ด หัวใจคับโลก

จากทีมงานผู้สร้าง Cars และ The Incredibles สู่ภาพยนต์แอนิเมชั่นสดใหม่แสนครื้นเครงสำหรับทุกๆ คนโดยเฉพาะ พรั่งพร้อมด้วยตัวละครใหม่ๆ สุดน่ารักและสัมผัสกับความงดงามของกรุงปารีสใน มุมมองที่ไม่เหมือนใคร ณ ภัตตาคารชื่อดังที่สุดแห่งหนึ่งในปารีส เรมี่ หนูหนุ่มผู้หลงใหลในการทำอาหาร เฝ้าใฝ่ฝันว่าสักวันจะได้เป็นพ่อครัวชื่อดังของฝรั่งเศส ด้วยความขัดแย้งระหว่างความหวังของครองครัวที่มีต่อเขากับความต้องการที่แท้จริงของตนเอง เรมี่และลิงกวีนี่ เพื่อนซี้จึงได้สร้างวีรกรรมชวนฮาที่จะทำให้นครแห่งแสงสีเมืองนี้แตกต่างไป จากเดิม “ระ-ทะ-ทู-อี่ พ่อครัวตัวจี๊ด หัวใจคับโลก” คือความสนุกแสนโอชะที่คุณจะต้องลิ้มรสครั้งแล้วครั้ง เล่า

Complete name : [MINI Super-HQ]_Ratatouille.2007.1080p.BrRip.AC3.x264.One2loadup.com.mkv
Format : Matroska
Format version : Version 4
File size : 4.28 GiB
Duration : 1 h 50 min
Overall bit rate mode : Variable
Overall bit rate : 5 539 kb/s
Movie name : [MINI Super-HQ]_Ratatouille.2007.1080p.BrRip.AC3.x264.One2loadup.com
Encoded date : UTC 2010-02-22 21:41:31
Writing application : mkvmerge v5.9.0 (‘On The Loose’) built on Dec 9 2012 15:37:01
Writing library : libebml v1.3.0 + libmatroska v1.4.0

Video
ID : 1
Format : AVC
Format/Info : Advanced Video Codec
Format profile : [email protected]
Format settings : CABAC / 4 Ref Frames
Format settings, CABAC : Yes
Format settings, ReFrames : 4 frames
Codec ID : V_MPEG4/ISO/AVC
Duration : 1 h 50 min
Bit rate mode : Variable
Bit rate : 4 700 kb/s
Maximum bit rate : 24.0 Mb/s
Width : 1 920 pixels
Height : 800 pixels
Display aspect ratio : 2.40:1
Frame rate mode : Constant
Frame rate : 23.976 (24000/1001) FPS
Color space : YUV
Chroma subsampling : 4:2:0
Bit depth : 8 bits
Scan type : Progressive
Bits/(Pixel*Frame) : 0.128
Stream size : 3.55 GiB (83%)
Title : [MINI Super-HQ]_Ratatouille.2007.1080p.BrRip.AC3.x264.One2loadup.com
Writing library : x264 core 142 r2431 ac76440
Encoding settings : cabac=1 / ref=5 / deblock=1:0:0 / analyse=0x3:0x133 / me=umh / subme=10 / psy=1 / psy_rd=1.00:0.00 / mixed_ref=1 / me_range=32 / chroma_me=1 / trellis=2 / 8x8dct=1 / cqm=0 / deadzone=21,11 / fast_pskip=0 / chroma_qp_offset=-2 / threads=2 / lookahead_threads=1 / sliced_threads=0 / nr=0 / decimate=1 / interlaced=0 / bluray_compat=1 / constrained_intra=0 / bframes=3 / b_pyramid=1 / b_adapt=2 / b_bias=0 / direct=3 / weightb=1 / open_gop=0 / weightp=1 / keyint=240 / keyint_min=1 / scenecut=40 / intra_refresh=0 / rc_lookahead=60 / rc=2pass / mbtree=1 / bitrate=4700 / ratetol=1.0 / qcomp=0.60 / qpmin=0 / qpmax=69 / qpstep=4 / cplxblur=20.0 / qblur=0.5 / vbv_maxrate=24000 / vbv_bufsize=24000 / nal_hrd=vbr / filler=0 / ip_ratio=1.40 / aq=1:1.00
Language : English
Default : Yes
Forced : No
Color range : Limited
Color primaries : BT.709
Transfer characteristics : BT.709
Matrix coefficients : BT.709

Audio #1
ID : 2
Format : AC-3
Format/Info : Audio Coding 3
Commercial name : Dolby Digital
Codec ID : A_AC3
Duration : 1 h 50 min
Bit rate mode : Constant
Bit rate : 448 kb/s
Channel(s) : 6 channels
Channel layout : L R C LFE Ls Rs
Sampling rate : 48.0 kHz
Frame rate : 31.250 FPS (1536 SPF)
Bit depth : 16 bits
Compression mode : Lossy
Stream size : 354 MiB (8%)
Language : English
Service kind : Complete Main
Default : Yes
Forced : Yes

Audio #2
ID : 3
Format : AC-3
Format/Info : Audio Coding 3
Commercial name : Dolby Digital
Codec ID : A_AC3
Duration : 1 h 50 min
Bit rate mode : Constant
Bit rate : 384 kb/s
Channel(s) : 6 channels
Channel layout : L R C LFE Ls Rs
Sampling rate : 48.0 kHz
Frame rate : 31.250 FPS (1536 SPF)
Bit depth : 16 bits
Compression mode : Lossy
Stream size : 304 MiB (7%)
Language : Thai
Service kind : Complete Main
Default : No
Forced : No

Text #1
ID : 4
Format : VobSub
Codec ID : S_VOBSUB
Codec ID/Info : Picture based subtitle format used on DVDs
Language : Thai
Default : Yes
Forced : Yes

Text #2
ID : 5
Format : VobSub
Codec ID : S_VOBSUB
Codec ID/Info : Picture based subtitle format used on DVDs
Language : Thai
Default : No
Forced : No

Text #3
ID : 6
Format : UTF-8
Codec ID : S_TEXT/UTF8
Codec ID/Info : UTF-8 Plain Text
Language : English
Default : No
Forced : No

Menu
00:00:00.000 : en:01: World’s Best
00:01:16.201 : en:02: This Is Me
00:06:29.431 : en:03: Taste This
00:09:22.896 : en:04: Caught
00:10:58.074 : en:05: Exodus
00:13:30.977 : en:06: Wall Rat
00:17:40.017 : en:07: Les Cooks
00:19:37.551 : en:08: Big Break
00:24:48.320 : en:09: Discovered
00:28:55.233 : en:10: The Pact
00:33:05.066 : en:11: First Day
00:38:13.416 : en:12: Test Drive
00:40:33.139 : en:13: Accidental Success
00:44:11.232 : en:14: Cooking with Colette
00:46:59.316 : en:15: Something New
00:51:27.668 : en:16: Old and New Friends
00:57:02.169 : en:17: Homecoming
00:59:32.319 : en:18: Exterminator
01:00:53.525 : en:19: Kiss and Vinegar
01:07:19.744 : en:20: Losing Control
01:11:25.656 : en:21: Paper Chase
01:15:28.232 : en:22: Up and Down
01:19:25.093 : en:23: Heist to See You
01:23:30.130 : en:24: Big Night(mare)
01:25:34.462 : en:25: Ego Orders
01:28:18.334 : en:26: Truth Hurts
01:32:39.012 : en:27: Dinner Rush
01:35:41.444 : en:28: Best Shot
01:38:49.715 : en:29: The Review
01:40:54.673 : en:30: La Ratatouille
01:42:58.964 : en:31: End Creditouilles

DOWNLOAD


PART01 |||| PART02 |||| PART03 |||| PART04 |||| PART05

PART01 |||| PART02 |||| PART03 |||| PART04 |||| PART05

PART01 |||| PART02 |||| PART03 |||| PART04 |||| PART05

PART01 |||| PART02 |||| PART03 |||| PART04 |||| PART05


Leave A Reply

Your email address will not be published.

%d bloggers like this: