โหลดหนัง HD MINI-HD SUPER-HQ Full-HD 1080p VIP Master Zoom ซูม หนังใหม่ ออนไลน์ มาสเตอร์ ไทย จีน ฝรั่ง การ์ตูน

[MINI Super-HQ] Planet Terror (2007) โคโยตี้แข้งปืนกล [1080p] [พากย์ไทย 5.1 + เสียงอังกฤษ DTS] [บรรยายไทย + อังกฤษ] [เสียงไทย + ซับไทย] [OPENLOAD]

0

Planet Terror (2007) โคโยตี้แข้งปืนกล

โหลดหนัง  Planet Terror (2007) โคโยตี้แข้งปืนกล

เรื่องย่อ Planet Terror (2007) โคโยตี้แข้งปืนกล

โรเบิร์ต ร็อดริเกซ ผู้กำกับร่วมของหนังเรื่อง SIN CITY ขอนำเสนอ PLANET TERROR หนังสยองขวัญแนวเรโทรล้ำยุคที่ถูกตากลมตากฝน ปอกเปลือกและหมักบ่มอย่างดีเพื่อให้สมบูรณ์แบบที่สุด น PLANET TERROR คู่หมอสามีภรรยา วิลเลียมและดาโกต้า บล็อก (จอช โบรลินและ มาร์ลีย์ เชลตัน)พบว่าสุสานของพวกเขากลายเป็นแหล่งสิงสถิตย์ของพวกชาวเมืองที่เจ็บปวดจากแผลเน่าเฟะและสายตาที่แลดูว่างเปล่าดูมีเงื่อนงำ ในบรรดาผู้ที่ได้รับบาดเจ็บมี เชอร์รี่ (โรส แม็คโกวาน) สาวอะโกโก้ที่ขาถูกตัดไปจากร่างกายเมื่อตอนเกิดอุบัติเหตุทางถนนรวมอยู่ด้วย เรย์ (เฟรดดี้ ร็อดริเกซ) อดีตคู่ใจก็ได้มาดูแลและคอยปกป้องเธอ เชอร์รี่อาจจะท้อแท้ แต่มันยังไม่ถึงฉากสุดท้ายของเธอ เมื่อฝูงคนไม่เป็นคนกลายเป็นผู้รุกรานที่บ้าคลั่ง เชอร์รี่ และเรย์ก็ได้นำสมัครพรรคพวกนักรบจำเป็นย่ำไปในราตรีกาลอันมืดมิดหันหน้า ต่อสู้กับโชคชะตาที่กลั่นแกล้งอันเป็นเหตุให้คนหลายล้านคนติดเชื้อล้มตายกันเป็นเบือ เขานำพวกที่เหลือรอดแค่ไม่กี่คนควานหาที่ซุกหัวปลอดภยันตรายที่สุดท้ายในโลก ฝันสยองนี้

Complete name : [MINI Super-HQ]_Planet.Terror.2007.1080p.BrRip.DTS.x264.One2loadup.com.mkv
Format : Matroska
Format version : Version 2
File size : 3.68 GiB
Duration : 1 h 45 min
Overall bit rate : 4 992 kb/s
Movie name : [MINI Super-HQ]_Planet.Terror.2007.1080p.BrRip.DTS.x264.One2loadup.com
Encoded date : UTC 2015-05-03 13:24:15
Writing application : mkvmerge v5.5.0 (‘Healer’) built on Apr 6 2012 21:43:24
Writing library : libebml v1.2.3 + libmatroska v1.3.0

Video
ID : 1
Format : AVC
Format/Info : Advanced Video Codec
Format profile : [email protected]
Format settings : CABAC / 5 Ref Frames
Format settings, CABAC : Yes
Format settings, ReFrames : 5 frames
Muxing mode : Header stripping
Codec ID : V_MPEG4/ISO/AVC
Duration : 1 h 45 min
Bit rate : 3 000 kb/s
Width : 1 920 pixels
Height : 1 080 pixels
Display aspect ratio : 16:9
Frame rate mode : Constant
Frame rate : 23.976 FPS
Color space : YUV
Chroma subsampling : 4:2:0
Bit depth : 8 bits
Scan type : Progressive
Bits/(Pixel*Frame) : 0.060
Stream size : 2.16 GiB (59%)
Writing library : x264 core 112
Encoding settings : cabac=1 / ref=5 / deblock=1:-1:-1 / analyse=0x1:0x131 / me=umh / subme=9 / psy=1 / psy_rd=1.20:0.00 / mixed_ref=0 / me_range=16 / chroma_me=1 / trellis=2 / 8x8dct=0 / cqm=0 / deadzone=21,11 / fast_pskip=1 / chroma_qp_offset=-2 / threads=6 / sliced_threads=0 / nr=0 / decimate=1 / interlaced=0 / constrained_intra=0 / bframes=3 / b_pyramid=2 / b_adapt=1 / b_bias=0 / direct=1 / weightb=0 / open_gop=0 / weightp=2 / keyint=240 / keyint_min=23 / scenecut=40 / intra_refresh=0 / rc_lookahead=40 / rc=2pass / mbtree=1 / bitrate=3000 / ratetol=1.0 / qcomp=0.60 / qpmin=3 / qpmax=51 / qpstep=4 / cplxblur=20.0 / qblur=0.5 / ip_ratio=1.40 / aq=1:1.00
Language : English
Default : Yes
Forced : No
Color range : Limited
Color primaries : BT.709
Transfer characteristics : BT.709
Matrix coefficients : BT.709

Audio #1
ID : 2
Format : DTS
Format/Info : Digital Theater Systems
Muxing mode : Header stripping
Codec ID : A_DTS
Duration : 1 h 45 min
Bit rate mode : Constant
Bit rate : 1 510 kb/s
Channel(s) : 6 channels
Channel layout : C L R Ls Rs LFE
Sampling rate : 48.0 kHz
Frame rate : 93.750 FPS (512 SPF)
Bit depth : 24 bits
Compression mode : Lossy
Stream size : 1.11 GiB (30%)
Title : EN DTS5.1 @1536
Language : English
Default : No
Forced : No

Audio #2
ID : 3
Format : AC-3
Format/Info : Audio Coding 3
Commercial name : Dolby Digital
Muxing mode : Header stripping
Codec ID : A_AC3
Duration : 1 h 45 min
Bit rate mode : Constant
Bit rate : 448 kb/s
Channel(s) : 6 channels
Channel layout : L R C LFE Ls Rs
Sampling rate : 48.0 kHz
Frame rate : 31.250 FPS (1536 SPF)
Bit depth : 16 bits
Compression mode : Lossy
Stream size : 338 MiB (9%)
Title : TH DD5.1
Language : Thai
Service kind : Complete Main
Default : Yes
Forced : Yes

Text #1
ID : 4
Format : UTF-8
Codec ID : S_TEXT/UTF8
Codec ID/Info : UTF-8 Plain Text
Title : EN SRT
Language : English
Default : No
Forced : No

Text #2
ID : 5
Format : VobSub
Muxing mode : zlib
Codec ID : S_VOBSUB
Codec ID/Info : Picture based subtitle format used on DVDs
Title : TH 480P AS
Language : Thai
Default : No
Forced : No

Text #3
ID : 6
Format : VobSub
Muxing mode : zlib
Codec ID : S_VOBSUB
Codec ID/Info : Picture based subtitle format used on DVDs
Title : TH 480P DN
Language : Thai
Default : No
Forced : No

Text #4
ID : 7
Format : VobSub
Muxing mode : zlib
Codec ID : S_VOBSUB
Codec ID/Info : Picture based subtitle format used on DVDs
Title : TH 1080P AS
Language : Thai
Default : No
Forced : No

Text #5
ID : 8
Format : VobSub
Muxing mode : zlib
Codec ID : S_VOBSUB
Codec ID/Info : Picture based subtitle format used on DVDs
Title : TH 1080P DN
Language : Thai
Default : Yes
Forced : Yes

Text #6
ID : 9
Format : PGS
Muxing mode : zlib
Codec ID : S_HDMV/PGS
Codec ID/Info : Picture based subtitle format used on BDs/HD-DVDs
Title : TH PGS AS
Language : Thai
Default : No
Forced : No

Text #7
ID : 10
Format : PGS
Muxing mode : zlib
Codec ID : S_HDMV/PGS
Codec ID/Info : Picture based subtitle format used on BDs/HD-DVDs
Title : TH PGS DN
Language : Thai
Default : No
Forced : No

DOWNLOAD


PART01 |||| PART02 |||| PART03 |||| PART04

PART01 |||| PART02 |||| PART03 |||| PART04

PART01 |||| PART02 |||| PART03 |||| PART04

PART01 |||| PART02 |||| PART03 |||| PART04


Leave A Reply

Your email address will not be published.

%d bloggers like this: