[MINI Super-HQ] Ninja Assassin (2009) แค้นสังหาร เทพบุตรนินจามหากาฬ [1080p] [พากย์ไทย 5.1 + เสียงอังกฤษ 5.1] [บรรยายไทย + อังกฤษ] [เสียงไทย + ซับไทย] [OPENLOAD]

0

Ninja Assassin (2009)

โหลดหนัง Ninja Assassin (2009) แค้นสังหาร เทพบุตรนินจามหากาฬ

Ninja Assassin (2009) 1h 39min | Action, Thriller | 25 November 2009 (Canada) Summary: A young ninja turns his back on the orphanage that raised him, leading to a confrontation with a fellow ninja from the clan.
Countries: Germany, USALanguages: English

เรื่องย่อ Ninja Assassin (2009) แค้นสังหาร เทพบุตรนินจามหากาฬ

ไรโซ (เรน) คือหนึ่งในนักฆ่าที่ร้ายกาจที่สุดในโลก เขาเคยเป็นเด็กข้างถนน แต่ได้รับการชุบเลี้ยงและฝึกฝนให้กลายเป็นนักฆ่าโดยสำนักโอซึนุ องค์กรลับที่ลึกลับเสียจนดูเหมือนไม่มีอยู่จริง และเมื่อสำนักจัดการสำเร็จโทษเพื่อนของเขาคนหนึ่งอย่างไร้เมตตา ไรโซ ก็ตัดสินใจหนีออกจากสำนักหายตัวไป รอวันจะได้ชำระแค้น ในเบอร์ลิน ประเทศเยอรมนี ตำรวจยูโรโปล มิคา โคเรตติ (นาโอมี แฮร์ริส) พบเงินจำนวนหนึ่งที่บ่งชี้ว่าคดีฆาตกรรมบุคคลทางการเมืองหลายต่อหลายคดี เกี่ยวพันกับนักฆ่าจากองค์กรใต้ดินของตะวันออกไกลที่ ไร้ร่องรอย เธอขัดคำสั่งรุ่นพี่ ไรอัน มาสโลว์ (เบน ไมล์ส) ที่บอกให้เธอเงียบเฉย มิคา ขุดคุ้ยแฟ้มข้อมูลลับต่อไปจนพบความจริงเบื้องหลังการ ฆาตกรรมเหล่านี้ การสืบข้อมูลเรื่องนี้ทำให้ มิคา กลายเป็นเป้าหมายของสำนักโอซึนุ สำนักส่งตัวนักฆ่าหลายคนมาฆ่าปิดปากเธอ นำโดยจอมวายร้าย ทาเคชิ (ริก ยุน) แต่ ไรโซ เข้ามาช่วยชีวิตเธอไว้ได้ อย่างไรก็ตาม เขารู้ดีว่าสำนักไม่มีทางรามือ จนกว่าจะกำจัด มิคา และตัวเขาเองได้สำเร็จ เกมแมวจับหนูจึงเกิดขึ้นทั่วท้องถนนในยุโรป หนทางเดียวที่จะรอดชีวิตคือ ไรโซ และ มิคา ต้องเชื่อใจกันและกัน และโค่นล้มสำนักโอซึนุลงให้จงได้

Complete name : [MINI Super-HQ]_Ninja.Assassin.2009.1080p.BrRip.AC3.x264.One2loadup.com.mkv
Format : Matroska
Format version : Version 4
File size : 4.51 GiB
Duration : 1 h 38 min
Overall bit rate mode : Variable
Overall bit rate : 6 543 kb/s
Movie name : [MINI Super-HQ]_Ninja.Assassin.2009.1080p.BrRip.AC3.x264.One2loadup.com
Encoded date : UTC 2010-02-22 21:41:31
Writing application : mkvmerge v5.9.0 (‘On The Loose’) built on Dec 9 2012 15:37:01
Writing library : libebml v1.3.0 + libmatroska v1.4.0

Video
ID : 1
Format : AVC
Format/Info : Advanced Video Codec
Format profile : [email protected]
Format settings : CABAC / 4 Ref Frames
Format settings, CABAC : Yes
Format settings, ReFrames : 4 frames
Muxing mode : Header stripping
Codec ID : V_MPEG4/ISO/AVC
Duration : 1 h 38 min
Bit rate mode : Variable
Bit rate : 5 248 kb/s
Maximum bit rate : 24.0 Mb/s
Width : 1 920 pixels
Height : 816 pixels
Display aspect ratio : 2.35:1
Frame rate mode : Constant
Frame rate : 23.976 (24000/1001) FPS
Color space : YUV
Chroma subsampling : 4:2:0
Bit depth : 8 bits
Scan type : Progressive
Bits/(Pixel*Frame) : 0.140
Stream size : 3.54 GiB (78%)
Title : [MINI Super-HQ]_Ninja.Assassin.2009.1080p.BrRip.AC3.x264.One2loadup.com
Writing library : x264 core 142 r2431 ac76440
Encoding settings : cabac=1 / ref=5 / deblock=1:0:0 / analyse=0x3:0x133 / me=umh / subme=10 / psy=1 / psy_rd=1.00:0.00 / mixed_ref=1 / me_range=32 / chroma_me=1 / trellis=2 / 8x8dct=1 / cqm=0 / deadzone=21,11 / fast_pskip=0 / chroma_qp_offset=-2 / threads=4 / lookahead_threads=1 / sliced_threads=0 / nr=0 / decimate=1 / interlaced=0 / bluray_compat=1 / constrained_intra=0 / bframes=3 / b_pyramid=1 / b_adapt=2 / b_bias=0 / direct=3 / weightb=1 / open_gop=0 / weightp=1 / keyint=240 / keyint_min=1 / scenecut=40 / intra_refresh=0 / rc_lookahead=60 / rc=2pass / mbtree=1 / bitrate=5248 / ratetol=1.0 / qcomp=0.60 / qpmin=0 / qpmax=69 / qpstep=4 / cplxblur=20.0 / qblur=0.5 / vbv_maxrate=24000 / vbv_bufsize=24000 / nal_hrd=vbr / filler=0 / ip_ratio=1.40 / aq=1:1.00
Language : English
Default : Yes
Forced : No
Color range : Limited
Color primaries : BT.709
Transfer characteristics : BT.709
Matrix coefficients : BT.709

Audio #1
ID : 2
Format : AC-3
Format/Info : Audio Coding 3
Commercial name : Dolby Digital
Muxing mode : Header stripping
Codec ID : A_AC3
Duration : 1 h 38 min
Bit rate mode : Constant
Bit rate : 640 kb/s
Channel(s) : 6 channels
Channel layout : L R C LFE Ls Rs
Sampling rate : 48.0 kHz
Frame rate : 31.250 FPS (1536 SPF)
Bit depth : 16 bits
Compression mode : Lossy
Stream size : 452 MiB (10%)
Title : Thai 5.1
Language : Thai
Service kind : Complete Main
Default : Yes
Forced : Yes

Audio #2
ID : 3
Format : AC-3
Format/Info : Audio Coding 3
Commercial name : Dolby Digital
Muxing mode : Header stripping
Codec ID : A_AC3
Duration : 1 h 38 min
Bit rate mode : Constant
Bit rate : 640 kb/s
Channel(s) : 6 channels
Channel layout : L R C LFE Ls Rs
Sampling rate : 48.0 kHz
Frame rate : 31.250 FPS (1536 SPF)
Bit depth : 16 bits
Compression mode : Lossy
Stream size : 452 MiB (10%)
Title : English 5.1
Language : English
Service kind : Complete Main
Default : No
Forced : No

Text #1
ID : 4
Format : VobSub
Muxing mode : zlib
Codec ID : S_VOBSUB
Codec ID/Info : Picture based subtitle format used on DVDs
Title : Thai 480p
Language : Thai
Default : No
Forced : No

Text #2
ID : 5
Format : VobSub
Muxing mode : zlib
Codec ID : S_VOBSUB
Codec ID/Info : Picture based subtitle format used on DVDs
Title : Thai 1080p
Language : Thai
Default : No
Forced : No

Text #3
ID : 6
Format : PGS
Muxing mode : zlib
Codec ID : S_HDMV/PGS
Codec ID/Info : Picture based subtitle format used on BDs/HD-DVDs
Title : Thai PGS
Language : Thai
Default : Yes
Forced : Yes

Text #4
ID : 7
Format : UTF-8
Codec ID : S_TEXT/UTF8
Codec ID/Info : UTF-8 Plain Text
Title : Eenglish
Language : English
Default : No
Forced : No

Menu
00:00:00.000 : en:Chapter 01
00:06:19.379 : en:Chapter 02
00:09:46.169 : en:Chapter 03
00:13:52.749 : en:Chapter 04
00:17:29.966 : en:Chapter 05
00:21:43.344 : en:Chapter 06
00:24:27.091 : en:Chapter 07
00:31:07.991 : en:Chapter 08
00:37:05.098 : en:Chapter 09
00:41:02.669 : en:Chapter 10
00:44:52.940 : en:Chapter 11
00:48:21.273 : en:Chapter 12
00:51:47.980 : en:Chapter 13
00:54:21.216 : en:Chapter 14
00:57:30.322 : en:Chapter 15
01:00:43.932 : en:Chapter 16
01:04:37.749 : en:Chapter 17
01:07:00.433 : en:Chapter 18
01:10:07.036 : en:Chapter 19
01:14:07.443 : en:Chapter 20
01:18:59.652 : en:Chapter 21
01:22:01.250 : en:Chapter 22
01:25:09.146 : en:Chapter 23
01:28:02.944 : en:Chapter 24
01:30:47.942 : en:Chapter 25

DOWNLOAD


PART01 |||| PART02 |||| PART03 |||| PART04 |||| PART05

PART01 |||| PART02 |||| PART03 |||| PART04 |||| PART05

PART01 |||| PART02 |||| PART03 |||| PART04 |||| PART05

PART01 |||| PART02 |||| PART03 |||| PART04 |||| PART05


Leave A Reply

Your email address will not be published.

%d bloggers like this: