โหลดหนัง HD MINI-HD SUPER-HQ Full-HD 1080p VIP Master Zoom ซูม หนังใหม่ ออนไลน์ มาสเตอร์ ไทย จีน ฝรั่ง การ์ตูน

[MINI Super-HQ] Night at the Museum: Secret of the Tomb 3 (2014) คืนมหัศจรรย์…พิพิธภัณฑ์มันส์ทะลุโลก: ความลับสุสานอัศจรรย์ ภาค 3 [1080p] [พากย์ไทย 5.1 + เสียงอังกฤษ 5.1] [บรรยายไทย + อังกฤษ] [เสียงไทย + ซับไทย] [ONE2UP]

0

Night at the Museum: Secret of the Tomb 3 (2014) คืนมหัศจรรย์...พิพิธภัณฑ์มันส์ทะลุโลก: ความลับสุสานอัศจรรย์ ภาค 3

โหลดหนัง Night at the Museum: Secret of the Tomb 3 (2014) คืนมหัศจรรย์…พิพิธภัณฑ์มันส์ทะลุโลก: ความลับสุสานอัศจรรย์ ภาค 3 

เรื่องย่อ Night at the Museum: Secret of the Tomb 3 (2014) คืนมหัศจรรย์…พิพิธภัณฑ์มันส์ทะลุโลก: ความลับสุสานอัศจรรย์ ภาค 3

เมื่อพิพิธภัณฑ์จัดแสดง Natural History Museum ในนิวยอร์คที่จะลุกขึ้นมามีชีวิตในช่วงค่ำคืนเริ่มมี ความแปลกประหลาด แลร์รี่ ผู้อำนวยการฝ่ายปฏิบัติการยามค่ำคืนของพิพิธภัณฑ์ที่ เพิ่งเลื่อนตำแหน่งต้องหาเหตุผลว่าเกิดอะไรขึ้น แผ่นจารึกที่ทำให้สิ่งมีชีวิตลุกขึ้นมาได้เริ่มเสื่อ มสภาพ มีทางเดียวที่อาจจะซ่อมแซมได้คือต้องไปที่พิพิธภัณฑ์ อังกฤษ แลร์รี่พร้อมยอมทำทุกอย่างเพื่อปกป้อง “ครอบครัว” ในพิพิธภัณฑ์เอาไว้ เขากับนิคลูกชายของเขาและของจัดแสดงในพิพิธภัณฑ์ต้อง เดินทางจากนิวยอร์คสู่ลอนดอน พวกเขาจะได้พบปริศนาของแผ่นจารึกที่นั่น

Complete name : [MINI Super-HQ]_3.Night.At.The.Museum.Secret.Of.The.Tomb..2014.1080p.x264.One2loadup.com.mkv
Format : Matroska
Format version : Version 4 / Version 2
File size : 3.40 GiB
Duration : 1 h 37 min
Overall bit rate : 4 976 kb/s
Movie name : [MINI Super-HQ]_3.Night.At.The.Museum.Secret.Of.The.Tomb..2014.1080p.x264.One2loadup.com
Encoded date : UTC 2017-12-10 04:13:14
Writing application : mkvmerge v18.0.0 (‘Apricity’) 64-bit
Writing library : libebml v1.3.5 + libmatroska v1.4.8

Video
ID : 1
Format : HEVC
Format/Info : High Efficiency Video Coding
Format profile : Main [email protected]@Main
Codec ID : V_MPEGH/ISO/HEVC
Duration : 1 h 37 min
Bit rate : 3 294 kb/s
Width : 1 920 pixels
Height : 1 024 pixels
Display aspect ratio : 1.85:1
Frame rate mode : Constant
Frame rate : 23.976 (24000/1001) FPS
Color space : YUV
Chroma subsampling : 4:2:0
Bit depth : 10 bits
Bits/(Pixel*Frame) : 0.070
Stream size : 2.25 GiB (66%)
Title : [MINI Super-HQ]_3.Night.At.The.Museum.Secret.Of.The.Tomb..2014.1080p.x264.One2loadup.com
Writing library : x265 2.5+58-06979c042350:[Windows][GCC 6.2.1][64 bit] 10bit
Encoding settings : cpuid=1050111 / frame-threads=3 / numa-pools=8 / wpp / no-pmode / no-pme / no-psnr / no-ssim / log-level=2 / input-csp=1 / input-res=1920×1024 / interlace=0 / total-frames=140709 / level-idc=0 / high-tier=1 / uhd-bd=0 / ref=5 / no-allow-non-conformance / no-repeat-headers / annexb / no-aud / no-hrd / info / hash=0 / no-temporal-layers / open-gop / min-keyint=23 / keyint=250 / bframes=8 / b-adapt=2 / b-pyramid / bframe-bias=0 / rc-lookahead=80 / lookahead-slices=6 / scenecut=40 / no-intra-refresh / ctu=64 / min-cu-size=8 / no-rect / no-amp / max-tu-size=32 / tu-inter-depth=1 / tu-intra-depth=1 / limit-tu=0 / rdoq-level=0 / dynamic-rd=0.00 / no-ssim-rd / signhide / no-tskip / nr-intra=0 / nr-inter=0 / no-constrained-intra / strong-intra-smoothing / max-merge=3 / limit-refs=3 / limit-modes / me=3 / subme=5 / merange=57 / temporal-mvp / weightp / weightb / no-analyze-src-pics / deblock=0:0 / sao / no-sao-non-deblock / rd=3 / no-early-skip / rskip / no-fast-intra / no-tskip-fast / no-cu-lossless / no-b-intra / no-splitrd-skip / rdpenalty=0 / psy-rd=0.30 / psy-rdoq=0.00 / no-rd-refine / analysis-reuse-mode=0 / no-lossless / cbqpoffs=0 / crqpoffs=0 / rc=abr / bitrate=3293 / qcomp=0.60 / qpstep=4 / stats-write=0 / stats-read=2 / cplxblur=20.0 / qblur=0.5 / ipratio=1.40 / pbratio=1.30 / aq-mode=3 / aq-strength=1.00 / cutree / zone-count=0 / no-strict-cbr / qg-size=32 / no-rc-grain / qpmax=69 / qpmin=0 / no-const-vbv / sar=0 / overscan=0 / videoformat=5 / range=0 / colorprim=2 / transfer=2 / colormatrix=2 / chromaloc=0 / display-window=0 / max-cll=0,0 / min-luma=0 / max-luma=1023 / log2-max-poc-lsb=8 / vui-timing-info / vui-hrd-info / slices=1 / no-opt-qp-pps / no-opt-ref-list-length-pps / no-multi-pass-opt-rps / scenecut-bias=0.05 / no-opt-cu-delta-qp / aq-motion / no-hdr / no-hdr-opt / no-dhdr10-opt / analysis-reuse-level=5 / scale-factor=0 / refine-intra=0 / refine-inter=0 / refine-mv=0 / no-limit-sao / ctu-info=0 / no-lowpass-dct / refine-mv-type=0 / copy-pic=1
Default : Yes
Forced : No

Audio #1
ID : 2
Format : AAC
Format/Info : Advanced Audio Codec
Format profile : LC
Codec ID : A_AAC-2
Duration : 1 h 37 min
Bit rate : 490 kb/s
Channel(s) : 7 channels
Channel(s)_Original : 8 channels
Channel positions : Front: L C R, Side: L R, Back: L R, LFE
Sampling rate : 48.0 kHz
Frame rate : 46.875 FPS (1024 SPF)
Compression mode : Lossy
Delay relative to video : 9 ms
Stream size : 343 MiB (10%)
Title : English AAC VBR 7.1
Language : English
Default : Yes
Forced : No

Audio #2
ID : 3
Format : AC-3
Format/Info : Audio Coding 3
Codec ID : A_AC3
Duration : 1 h 37 min
Bit rate mode : Constant
Bit rate : 224 kb/s
Channel(s) : 2 channels
Channel positions : Front: L R
Sampling rate : 48.0 kHz
Frame rate : 31.250 FPS (1536 SPF)
Bit depth : 16 bits
Compression mode : Lossy
Stream size : 157 MiB (5%)
Title : Commentary With Director Shawn Levy
Language : English
Service kind : Complete Main
Default : No
Forced : No

Audio #3
ID : 4
Format : AC-3
Format/Info : Audio Coding 3
Codec ID : A_AC3
Duration : 1 h 37 min
Bit rate mode : Constant
Bit rate : 448 kb/s
Channel(s) : 6 channels
Channel positions : Front: L C R, Side: L R, LFE
Sampling rate : 48.0 kHz
Frame rate : 31.250 FPS (1536 SPF)
Bit depth : 16 bits
Compression mode : Lossy
Stream size : 313 MiB (9%)
Title : Thai AC-3 5.1 at 448 Kbps BluRay Master
Language : Thai
Service kind : Complete Main
Default : No
Forced : Yes

Audio #4
ID : 5
Format : AC-3
Format/Info : Audio Coding 3
Codec ID : A_AC3
Duration : 1 h 37 min
Bit rate mode : Constant
Bit rate : 448 kb/s
Channel(s) : 6 channels
Channel positions : Front: L C R, Side: L R, LFE
Sampling rate : 48.0 kHz
Frame rate : 31.250 FPS (1536 SPF)
Bit depth : 16 bits
Compression mode : Lossy
Stream size : 313 MiB (9%)
Title : English AC-3 5.1 at 448 Kbps
Language : English
Service kind : Complete Main
Default : No
Forced : No

Text #1
ID : 6
Format : VobSub
Muxing mode : zlib
Codec ID : S_VOBSUB
Codec ID/Info : Picture based subtitle format used on DVDs
Duration : 1 h 36 min
Bit rate : 2 356 b/s
Count of elements : 1632
Stream size : 1.63 MiB (0%)
Title : Thai 480p
Language : Thai
Default : No
Forced : No

Text #2
ID : 7
Format : VobSub
Muxing mode : zlib
Codec ID : S_VOBSUB
Codec ID/Info : Picture based subtitle format used on DVDs
Duration : 1 h 36 min
Bit rate : 4 567 b/s
Count of elements : 1632
Stream size : 3.16 MiB (0%)
Title : Thai 720p
Language : Thai
Default : No
Forced : No

Text #3
ID : 8
Format : VobSub
Muxing mode : zlib
Codec ID : S_VOBSUB
Codec ID/Info : Picture based subtitle format used on DVDs
Duration : 1 h 36 min
Bit rate : 8 124 b/s
Count of elements : 1632
Stream size : 5.63 MiB (0%)
Title : Thai 1080p BluRay Master
Language : Thai
Default : Yes
Forced : Yes

Text #4
ID : 9
Format : PGS
Muxing mode : zlib
Codec ID : S_HDMV/PGS
Codec ID/Info : Picture based subtitle format used on BDs/HD-DVDs
Duration : 1 h 36 min
Bit rate : 32.8 kb/s
Count of elements : 3264
Stream size : 22.7 MiB (1%)
Title : Thai PGS BluRay Master
Language : Thai
Default : No
Forced : No

Text #5
ID : 10
Format : VobSub
Muxing mode : zlib
Codec ID : S_VOBSUB
Codec ID/Info : Picture based subtitle format used on DVDs
Duration : 1 h 29 min
Bit rate : 13.1 kb/s
Count of elements : 1838
Stream size : 8.43 MiB (0%)
Title : English 1080p BluRay Master
Language : English
Default : No
Forced : No

Text #6
ID : 11
Format : PGS
Muxing mode : zlib
Codec ID : S_HDMV/PGS
Codec ID/Info : Picture based subtitle format used on BDs/HD-DVDs
Duration : 1 h 30 min
Bit rate : 50.6 kb/s
Count of elements : 3678
Stream size : 32.7 MiB (1%)
Title : English PGS BluRay Master
Language : English
Default : No
Forced : No

Text #7
ID : 12
Format : PGS
Muxing mode : zlib
Codec ID : S_HDMV/PGS
Codec ID/Info : Picture based subtitle format used on BDs/HD-DVDs
Duration : 1 h 30 min
Bit rate : 50.6 kb/s
Count of elements : 3678
Stream size : 32.7 MiB (1%)
Title : English SDH
Language : English
Default : No
Forced : No

Text #8
ID : 13
Format : UTF-8
Codec ID : S_TEXT/UTF8
Codec ID/Info : UTF-8 Plain Text
Duration : 1 h 29 min
Bit rate : 66 b/s
Count of elements : 1556
Stream size : 43.8 KiB (0%)
Title : English Full SRT
Language : English
Default : No
Forced : No

Text #9
ID : 14
Format : UTF-8
Codec ID : S_TEXT/UTF8
Codec ID/Info : UTF-8 Plain Text
Duration : 1 h 29 min
Bit rate : 74 b/s
Count of elements : 1838
Stream size : 49.1 KiB (0%)
Title : English SDH SRT
Language : English
Default : No
Forced : No

Text #10
ID : 15
Format : UTF-8
Codec ID : S_TEXT/UTF8
Codec ID/Info : UTF-8 Plain Text
Duration : 1 h 30 min
Bit rate : 79 b/s
Count of elements : 1805
Stream size : 52.5 KiB (0%)
Title : English Color SRT
Language : English
Default : No
Forced : No

Text #11
ID : 16
Format : PGS
Muxing mode : zlib
Codec ID : S_HDMV/PGS
Codec ID/Info : Picture based subtitle format used on BDs/HD-DVDs
Duration : 1 h 36 min
Bit rate : 35.5 kb/s
Count of elements : 2832
Stream size : 24.6 MiB (1%)
Title : Spanish
Language : Spanish
Default : No
Forced : No

Menu #1
00:00:00.000 : en:00:00:00.000
00:04:34.441 : en:00:04:34.441
00:06:29.347 : en:00:06:29.347
00:09:10.884 : en:00:09:10.884
00:13:18.131 : en:00:13:18.131
00:14:43.132 : en:00:14:43.132
00:18:01.038 : en:00:18:01.038
00:19:58.906 : en:00:19:58.906
00:22:27.388 : en:00:22:27.388
00:24:47.611 : en:00:24:47.611
00:26:26.084 : en:00:26:26.084
00:29:11.583 : en:00:29:11.583
00:32:03.505 : en:00:32:03.505
00:35:50.815 : en:00:35:50.815
00:39:48.761 : en:00:39:48.761
00:44:14.735 : en:00:44:14.735
00:51:19.285 : en:00:51:19.285
00:52:38.530 : en:00:52:38.530
00:58:00.352 : en:00:58:00.352
01:01:09.624 : en:01:01:09.624
01:03:40.275 : en:01:03:40.275
01:06:44.334 : en:01:06:44.334
01:08:01.911 : en:01:08:01.911
01:11:09.640 : en:01:11:09.640
01:17:08.624 : en:01:17:08.624
01:21:45.317 : en:01:21:45.317
01:27:47.512 : en:01:27:47.512
01:31:28.274 : en:01:31:28.274

Menu #2
00:00:00.000 : :Chapter 01
00:04:34.440 : :Chapter 02
00:06:29.347 : :Chapter 03
00:09:10.883 : :Chapter 04
00:13:18.130 : :Chapter 05
00:14:43.132 : :Chapter 06
00:18:01.038 : :Chapter 07
00:19:58.906 : :Chapter 08
00:22:27.387 : :Chapter 09
00:24:47.611 : :Chapter 10
00:26:26.084 : :Chapter 11
00:29:11.583 : :Chapter 12
00:32:03.504 : :Chapter 13
00:35:50.815 : :Chapter 14
00:39:48.761 : :Chapter 15
00:44:14.735 : :Chapter 16
00:51:19.284 : :Chapter 17
00:52:38.530 : :Chapter 18
00:58:00.351 : :Chapter 19
01:01:09.624 : :Chapter 20
01:03:40.274 : :Chapter 21
01:06:44.333 : :Chapter 22
01:08:01.911 : :Chapter 23
01:11:09.640 : :Chapter 24
01:17:08.624 : :Chapter 25
01:21:45.317 : :Chapter 26
01:27:47.512 : :Chapter 27
01:31:28.274 : :Chapter 28

DOWNLOAD


PART01 |||| PART02 |||| PART03 |||| PART04

PART01 |||| PART02 |||| PART03 |||| PART04

PART01 |||| PART02 |||| PART03 |||| PART04

PART01 |||| PART02 |||| PART03 |||| PART04


Leave A Reply

Your email address will not be published.

%d bloggers like this: