[MINI Super-HQ] Night at the Museum: Secret of the Tomb 3 (2014) คืนมหัศจรรย์…พิพิธภัณฑ์มันส์ทะลุโลก: ความลับสุสานอัศจรรย์ ภาค 3 [1080p] [พากย์ไทย 5.1 + เสียงอังกฤษ DTS] [บรรยายไทย + อังกฤษ] [เสียงไทย + ซับไทย] [PANDAFILE]

2

Night at the Museum: Secret of the Tomb 3 (2014) คืนมหัศจรรย์...พิพิธภัณฑ์มันส์ทะลุโลก: ความลับสุสานอัศจรรย์ ภาค 3

โหลดหนัง Night at the Museum: Secret of the Tomb 3 (2014) คืนมหัศจรรย์…พิพิธภัณฑ์มันส์ทะลุโลก: ความลับสุสานอัศจรรย์ ภาค 3 

Night at the Museum: Secret of the Tomb (2014) 1h 38min | Adventure, Comedy, Family | 5 February 2015 (Netherlands) Summary: Larry spans the globe, uniting favorite and new characters while embarking on an epic quest to save the magic before it is gone forever.
Countries: UK, USALanguages: English

เรื่องย่อ Night at the Museum: Secret of the Tomb 3 (2014) คืนมหัศจรรย์…พิพิธภัณฑ์มันส์ทะลุโลก: ความลับสุสานอัศจรรย์ ภาค 3

เมื่อพิพิธภัณฑ์จัดแสดง Natural History Museum ในนิวยอร์คที่จะลุกขึ้นมามีชีวิตในช่วงค่ำคืนเริ่มมี ความแปลกประหลาด แลร์รี่ ผู้อำนวยการฝ่ายปฏิบัติการยามค่ำคืนของพิพิธภัณฑ์ที่ เพิ่งเลื่อนตำแหน่งต้องหาเหตุผลว่าเกิดอะไรขึ้น แผ่นจารึกที่ทำให้สิ่งมีชีวิตลุกขึ้นมาได้เริ่มเสื่อ มสภาพ มีทางเดียวที่อาจจะซ่อมแซมได้คือต้องไปที่พิพิธภัณฑ์ อังกฤษ แลร์รี่พร้อมยอมทำทุกอย่างเพื่อปกป้อง “ครอบครัว” ในพิพิธภัณฑ์เอาไว้ เขากับนิคลูกชายของเขาและของจัดแสดงในพิพิธภัณฑ์ต้อง เดินทางจากนิวยอร์คสู่ลอนดอน พวกเขาจะได้พบปริศนาของแผ่นจารึกที่นั่น

Complete name : [MINI Super-HQ]_3.Night.at.the.Museum.Secret.of.the.Tomb.2014.1080p.BluRay.DTS.x264.One2loadup.com.mkv
Format : Matroska
Format version : Version 4
File size : 4.27 GiB
Duration : 1 h 37 min
Overall bit rate mode : Variable
Overall bit rate : 6 256 kb/s
Movie name : [MINI Super-HQ]_3.Night.at.the.Museum.Secret.of.the.Tomb.2014.1080p.BluRay.DTS.x264.One2loadup.com
Encoded date : UTC 2020-01-22 06:05:34
Writing application : mkvmerge v40.0.0 (‘Old Town Road + Pony’) 64-bit
Writing library : libebml v1.3.9 + libmatroska v1.5.2

Video
ID : 1
Format : AVC
Format/Info : Advanced Video Codec
Format profile : [email protected]
Format settings : CABAC / 4 Ref Frames
Format settings, CABAC : Yes
Format settings, ReFrames : 4 frames
Codec ID : V_MPEG4/ISO/AVC
Duration : 1 h 37 min
Bit rate mode : Variable
Bit rate : 5 000 kb/s
Maximum bit rate : 100.0 Mb/s
Width : 1 920 pixels
Height : 1 036 pixels
Display aspect ratio : 1.85:1
Frame rate mode : Constant
Frame rate : 23.976 FPS
Color space : YUV
Chroma subsampling : 4:2:0
Bit depth : 8 bits
Scan type : Progressive
Bits/(Pixel*Frame) : 0.105
Stream size : 3.42 GiB (80%)
Title : [MINI Super-HQ]_3.Night.at.the.Museum.Secret.of.the.Tomb.2014.1080p.BluRay.DTS.x264.One2loadup.com
Writing library : x264 core 130 r2273 b3065e6
Encoding settings : cabac=1 / ref=4 / deblock=1:0:0 / analyse=0x3:0x133 / me=umh / subme=11 / psy=1 / psy_rd=1.00:0.15 / mixed_ref=1 / me_range=64 / chroma_me=1 / trellis=2 / 8x8dct=1 / cqm=0 / deadzone=21,11 / fast_pskip=1 / chroma_qp_offset=-3 / threads=16 / lookahead_threads=1 / sliced_threads=0 / nr=0 / decimate=1 / interlaced=0 / bluray_compat=0 / constrained_intra=0 / bframes=4 / b_pyramid=2 / b_adapt=2 / b_bias=0 / direct=3 / weightb=1 / open_gop=0 / weightp=2 / keyint=250 / keyint_min=23 / scenecut=40 / intra_refresh=0 / rc_lookahead=100 / rc=2pass / mbtree=1 / bitrate=5000 / ratetol=1.0 / qcomp=0.60 / qpmin=0 / qpmax=69 / qpstep=4 / cplxblur=20.0 / qblur=0.5 / vbv_maxrate=99999 / vbv_bufsize=99999 / nal_hrd=vbr / ip_ratio=1.40 / aq=1:1.00
Language : English
Default : Yes
Forced : No

Audio #1
ID : 2
Format : AC-3
Format/Info : Audio Coding 3
Commercial name : Dolby Digital
Codec ID : A_AC3
Duration : 1 h 37 min
Bit rate mode : Constant
Bit rate : 448 kb/s
Channel(s) : 6 channels
Channel layout : L R C LFE Ls Rs
Sampling rate : 48.0 kHz
Frame rate : 31.250 FPS (1536 SPF)
Bit depth : 16 bits
Compression mode : Lossy
Stream size : 313 MiB (7%)
Title : [THAI AC3 FROM BLU-RAY MASTER]
Language : Thai
Service kind : Complete Main
Default : Yes
Forced : No

Audio #2
ID : 3
Format : DTS
Format/Info : Digital Theater Systems
Codec ID : A_DTS
Duration : 1 h 37 min
Bit rate mode : Constant
Bit rate : 755 kb/s
Channel(s) : 6 channels
Channel layout : C L R Ls Rs LFE
Sampling rate : 48.0 kHz
Frame rate : 93.750 FPS (512 SPF)
Bit depth : 24 bits
Compression mode : Lossy
Stream size : 528 MiB (12%)
Title : ENG DTS
Language : English
Default : No
Forced : No

Text #1
ID : 4
Format : VobSub
Muxing mode : zlib
Codec ID : S_VOBSUB
Codec ID/Info : Picture based subtitle format used on DVDs
Duration : 1 h 36 min
Bit rate : 2 588 b/s
Count of elements : 1632
Stream size : 1.79 MiB (0%)
Title : [SUB THAI 480P FROM BLU-RAY]
Language : Thai
Default : No
Forced : No

Text #2
ID : 5
Format : VobSub
Muxing mode : zlib
Codec ID : S_VOBSUB
Codec ID/Info : Picture based subtitle format used on DVDs
Duration : 1 h 36 min
Bit rate : 9 698 b/s
Count of elements : 1632
Stream size : 6.72 MiB (0%)
Title : [SUB THAI 1080P FROM BLU-RAY]
Language : Thai
Default : No
Forced : No

Text #3
ID : 6
Format : PGS
Muxing mode : zlib
Codec ID : S_HDMV/PGS
Codec ID/Info : Picture based subtitle format used on BDs/HD-DVDs
Duration : 1 h 36 min
Bit rate : 46.8 kb/s
Count of elements : 3264
Stream size : 32.4 MiB (1%)
Title : [SUB THAI PGS FROM BLU-RAY]
Language : Thai
Default : No
Forced : No

Text #4
ID : 7
Format : PGS
Muxing mode : zlib
Codec ID : S_HDMV/PGS
Codec ID/Info : Picture based subtitle format used on BDs/HD-DVDs
Duration : 1 h 29 min
Bit rate : 50.9 kb/s
Count of elements : 3676
Stream size : 32.8 MiB (1%)
Title : [SUB ENG PGS FROM BLU-RAY]
Language : English
Default : No
Forced : No

Text #5
ID : 8
Format : VobSub
Muxing mode : zlib
Codec ID : S_VOBSUB
Codec ID/Info : Picture based subtitle format used on DVDs
Duration : 1 h 29 min
Bit rate : 4 115 b/s
Count of elements : 1838
Stream size : 2.65 MiB (0%)
Title : [SUB ENG 480P FROM BLU-RAY]
Language : English
Default : No
Forced : No

Menu
00:00:00.000 : en:00:00:00.000
00:04:34.441 : en:00:04:34.441
00:06:29.347 : en:00:06:29.347
00:09:10.884 : en:00:09:10.884
00:13:18.131 : en:00:13:18.131
00:14:43.132 : en:00:14:43.132
00:18:01.038 : en:00:18:01.038
00:19:58.906 : en:00:19:58.906
00:22:27.388 : en:00:22:27.388
00:24:47.611 : en:00:24:47.611
00:26:26.084 : en:00:26:26.084
00:29:11.583 : en:00:29:11.583
00:32:03.505 : en:00:32:03.505
00:35:50.815 : en:00:35:50.815
00:39:48.761 : en:00:39:48.761
00:44:14.735 : en:00:44:14.735
00:51:19.285 : en:00:51:19.285
00:52:38.530 : en:00:52:38.530
00:58:00.352 : en:00:58:00.352
01:01:09.624 : en:01:01:09.624
01:03:40.275 : en:01:03:40.275
01:06:44.334 : en:01:06:44.334
01:08:01.911 : en:01:08:01.911
01:11:09.640 : en:01:11:09.640
01:17:08.624 : en:01:17:08.624
01:21:45.317 : en:01:21:45.317
01:27:47.512 : en:01:27:47.512
01:31:28.274 : en:01:31:28.274

DOWNLOAD


PART01 |||| PART02 |||| PART03 |||| PART04 |||| PART05

PART01 |||| PART02 |||| PART03 |||| PART04 |||| PART05

PART01 |||| PART02 |||| PART03 |||| PART04 |||| PART05

PART01 |||| PART02 |||| PART03 |||| PART04 |||| PART05

PART01 |||| PART02 |||| PART03 |||| PART04 |||| PART05


2 Comments
  1. Saengdee Chaowai
    Saengdee Chaowai says

    ไฟล์ Part 2 โหลดไม่ได้ค่ะ

    1. Admin
      Admin says

      แก้ไขเรียบร้อยฮ๊ะ

Leave A Reply

Your email address will not be published.

%d bloggers like this: