[MINI Super-HQ] Midsommar (2019) เทศกาลสยอง [1080p] [ฉ.20] [พากย์ไทย 5.1 + เสียงอังกฤษ DTS] [บรรยายไทย + อังกฤษ] [เสียงไทย + ซับไทย] [PANDAFILE]

0

Midsommar (2019)

โหลดหนัง Midsommar (2019) เทศกาลสยอง

Midsommar (2019) 2h 27min | Drama, Horror, Mystery | 26 September 2019 (Germany) Summary: A couple travels to Sweden to visit a rural hometown's fabled mid-summer festival. What begins as an idyllic retreat quickly devolves into an increasingly violent and bizarre competition at the hands of a pagan cult.
Countries: USA, Sweden, HungaryLanguages: English, Swedish

เรื่องย่อ Midsommar (2019) เทศกาลสยอง

“ดานี” และ “คริสเตียน” คู่รักที่เดินทางมายังประเทศสวีเดนตามคำชักชวนของเพื่อนร่วมมหา’ลัย ที่นั่นพวกเขาและเพื่อนๆวางแผนที่จะไปเที่ยวเทศกาลเฉลิมฉลองฤดูร้อนในหมู่บ้านที่อยู่ห่างไกลและร้างไร้ผู้คน เทศกาลนี้จะจัดขึ้นเพียง 1 ครั้งในรอบ 90 ปี เป็นเวลา 9 วันและเป็น 9 วันที่พระอาทิตย์ไม่เคยตกดิน แต่ยิ่งพวกเขาคลุกคลีอยู่กับดินแดนที่เหมือนจะสดใสแห่งนี้เท่าไรก็ยิ่งค้นพบเรื่องราวสุดแปลกประหลาด และชวนขนหัวลุกขึ้นเรื่อยๆ และกว่าจะรู้ตัวก็แทบจะสายเกินไป!!!

“Midsommar” เป็นผลงานการกำกับเรื่องที่ 2 ของ “แอรี แอสเตอร์” ผู้กำกับ “Hereditary กรรมพันธุ์สยอง”หนังสยองขวัญครอบครัวสุดหลอนที่เข้าฉายเมื่อปี 2018 และได้รับคำชมมหาศาล ติดอันดับหนังยอดเยี่ยมแห่งปีจากหลายสำนักหนังได้นักแสดงดาวรุ่งหลายคนมารับบทนำ ไม่ว่าจะเป็น “ฟลอเรนซ์ พิวจ์” จาก Fighting with My Family (2019),“วิล โพลเทอร์” จาก The Maze Runner (2014) และ “แจ็ก เรย์เนอร์” จาก Transformers: Age of Extinction (2014)

หนึ่งในฉากสำคัญของ “Midsommar” ที่ปรากฏในตัวอย่างคือ ฉากรับประทานอาหารมื้อสุดท้าย (The Last Supper) “แจ็ก เรย์เนอร์” ผู้รับบทเป็น “คริสเตียน”กล่าวถึงตัวละครชาวบ้านผู้เข้าร่วมพิธีกรรมศักดิ์สิท ธิ์ในหนังเรื่องนี้เอาไว้ว่า “คนพวกนี้โคตรน่าขนลุกสุดๆ และคนดูจะต้องเอาใจช่วยพวกเราไปตลอดทั้งเรื่องแน่ๆ”

Complete name : [MINI Super-HQ]_Midsommar.2019.1080p.BrRip.DTS.x264.One2loadup.com.mkv
Format : Matroska
Format version : Version 4
File size : 4.42 GiB
Duration : 2 h 27 min
Overall bit rate : 4 299 kb/s
Movie name : [MINI Super-HQ]_Midsommar.2019.1080p.BrRip.DTS.x264.One2loadup.com
Encoded date : UTC 2010-02-22 21:41:31
Writing application : mkvmerge v5.9.0 (‘On The Loose’) built on Dec 9 2012 15:37:01
Writing library : libebml v1.3.0 + libmatroska v1.4.0

Video
ID : 1
Format : AVC
Format/Info : Advanced Video Codec
Format profile : [email protected]
Format settings : CABAC / 4 Ref Frames
Format settings, CABAC : Yes
Format settings, ReFrames : 4 frames
Codec ID : V_MPEG4/ISO/AVC
Duration : 2 h 27 min
Bit rate : 3 003 kb/s
Width : 1 920 pixels
Height : 960 pixels
Display aspect ratio : 2.000
Frame rate mode : Constant
Frame rate : 23.976 (24000/1001) FPS
Color space : YUV
Chroma subsampling : 4:2:0
Bit depth : 8 bits
Scan type : Progressive
Bits/(Pixel*Frame) : 0.068
Stream size : 3.09 GiB (70%)
Title : [MINI Super-HQ]_Midsommar.2019.1080p.BrRip.DTS.x264.One2loadup.com
Writing library : x264 core 157 r2935 545de2f
Encoding settings : cabac=1 / ref=3 / deblock=1:0:0 / analyse=0x3:0x133 / me=umh / subme=11 / psy=1 / psy_rd=1.00:0.00 / mixed_ref=1 / me_range=48 / chroma_me=1 / trellis=2 / 8x8dct=1 / cqm=0 / deadzone=21,11 / fast_pskip=1 / chroma_qp_offset=-2 / threads=12 / lookahead_threads=1 / sliced_threads=0 / nr=0 / decimate=1 / interlaced=0 / bluray_compat=0 / constrained_intra=0 / bframes=3 / b_pyramid=2 / b_adapt=2 / b_bias=0 / direct=3 / weightb=1 / open_gop=0 / weightp=2 / keyint=240 / keyint_min=24 / scenecut=40 / intra_refresh=0 / rc_lookahead=60 / rc=2pass / mbtree=1 / bitrate=3003 / ratetol=1.0 / qcomp=0.60 / qpmin=0 / qpmax=69 / qpstep=4 / cplxblur=20.0 / qblur=0.5 / vbv_maxrate=25000 / vbv_bufsize=31250 / nal_hrd=none / filler=0 / ip_ratio=1.40 / aq=1:1.00
Language : English
Default : Yes
Forced : No
Color range : Limited
Color primaries : BT.709
Transfer characteristics : BT.709
Matrix coefficients : BT.709

Audio #1
ID : 2
Format : AC-3
Format/Info : Audio Coding 3
Commercial name : Dolby Digital
Codec ID : A_AC3
Duration : 2 h 27 min
Bit rate mode : Constant
Bit rate : 448 kb/s
Channel(s) : 6 channels
Channel layout : L R C LFE Ls Rs
Sampling rate : 48.0 kHz
Frame rate : 31.250 FPS (1536 SPF)
Bit depth : 16 bits
Compression mode : Lossy
Stream size : 471 MiB (10%)
Title : Thai DVD Master
Language : Thai
Service kind : Complete Main
Default : Yes
Forced : Yes

Audio #2
ID : 3
Format : DTS
Format/Info : Digital Theater Systems
Codec ID : A_DTS
Duration : 2 h 27 min
Bit rate mode : Constant
Bit rate : 755 kb/s
Channel(s) : 6 channels
Channel layout : C L R Ls Rs LFE
Sampling rate : 48.0 kHz
Frame rate : 93.750 FPS (512 SPF)
Bit depth : 24 bits
Compression mode : Lossy
Stream size : 794 MiB (18%)
Title : English DTS
Language : English
Default : No
Forced : No

Text #1
ID : 4
Format : VobSub
Codec ID : S_VOBSUB
Codec ID/Info : Picture based subtitle format used on DVDs
Title : Thai 720p
Language : Thai
Default : No
Forced : No

Text #2
ID : 5
Format : VobSub
Codec ID : S_VOBSUB
Codec ID/Info : Picture based subtitle format used on DVDs
Title : Thai 1080p
Language : Thai
Default : Yes
Forced : Yes

Text #3
ID : 6
Format : VobSub
Codec ID : S_VOBSUB
Codec ID/Info : Picture based subtitle format used on DVDs
Title : Thai 1080p BIG
Language : Thai
Default : No
Forced : No

Text #4
ID : 7
Format : VobSub
Codec ID : S_VOBSUB
Codec ID/Info : Picture based subtitle format used on DVDs
Title : Thai 1080p Yellow
Language : Thai
Default : No
Forced : No

Text #5
ID : 8
Format : PGS
Codec ID : S_HDMV/PGS
Codec ID/Info : Picture based subtitle format used on BDs/HD-DVDs
Title : Thai PGS
Language : Thai
Default : No
Forced : No

Text #6
ID : 9
Format : PGS
Codec ID : S_HDMV/PGS
Codec ID/Info : Picture based subtitle format used on BDs/HD-DVDs
Title : Thai PGS Yellow
Language : Thai
Default : No
Forced : No

Text #7
ID : 10
Format : PGS
Codec ID : S_HDMV/PGS
Codec ID/Info : Picture based subtitle format used on BDs/HD-DVDs
Title : English
Language : English
Default : No
Forced : No

Menu
00:00:00.000 : :Chapter 1
00:12:34.712 : :Chapter 2
00:18:06.877 : :Chapter 3
00:25:15.222 : :Chapter 4
00:33:35.722 : :Chapter 5
00:40:56.955 : :Chapter 6
00:49:23.669 : :Chapter 7
00:57:14.765 : :Chapter 8
01:05:52.740 : :Chapter 9
01:12:59.083 : :Chapter 10
01:20:37.041 : :Chapter 11
01:33:58.591 : :Chapter 12
01:41:34.171 : :Chapter 13
01:53:50.365 : :Chapter 14
02:02:22.961 : :Chapter 15
02:14:07.039 : :Chapter 16

DOWNLOAD


PART01 |||| PART02 |||| PART03 |||| PART04 |||| PART05

PART01 |||| PART02 |||| PART03 |||| PART04 |||| PART05

PART01 |||| PART02 |||| PART03 |||| PART04 |||| PART05

PART01 |||| PART02 |||| PART03 |||| PART04 |||| PART05


Leave A Reply

Your email address will not be published.

%d bloggers like this: