[MINI Super-HQ] Mia and the White Lion (2018) มีอากับมิตรภาพมหัศจรรย์ [1080p] [พากย์ไทย 5.1 + เสียงอังกฤษ DTS] [บรรยายไทย + อังกฤษ] [เสียงไทย + ซับไทย] [ONE2UP]

0

Mia and the White Lion (2018) มีอากับมิตรภาพมหัศจรรย์

โหลดหนัง Mia and the White Lion (2018) มีอากับมิตรภาพมหัศจรรย์

Mia et le lion blanc (2018) 1h 38min | Adventure, Drama, Family | 26 December 2018 (France) Summary: A young girl from London moves to Africa with her parents where she befriends a lion cub.
Countries: France, Germany, South AfricaLanguages: English, French

เรื่องย่อ Mia and the White Lion (2018) มีอากับมิตรภาพมหัศจรรย์

เมื่อเด็กหญิงวัย 10 ปีอย่าง มีอา ต้องย้ายสถานที่พักอาศัยเดินทางตามครอบครัว ทิ้งชีวิตสุดหรูในลอนดอนมาผจญภัยและใช้ชีวิตอยู่ในแอฟริกาใต้เธอปฏิเสธความสุขทุกอย่างในผืนดินที่เต็มไปธรรมชาติรายรอบตัว เธอปิดตัวเองจากครอบครัว เพื่อน และสังคม เพราะคิดว่าที่นี่ไม่ใช่ที่ของเธอจนกระทั่งบ้านของเธอมีสมาชิกใหม่เป็น ชาร์ลี สิงโตขาวที่เพิ่งเกิดในฟาร์มเพาะพันธุ์สิงโตจากพ่อพันธุ์แม่พันธุ์ของแอฟริกาใต้

เด็กหญิง กับ สิงโตขาว ค่อยๆ เติบโตไปด้วยกัน ออกผจญภัยไปด้วยกันจนกลายเป็นความสัมพันธ์สุดมหัศจรรย์กระทั่งผ่านไป 3 ปีความซี้ข้ามเผ่าพันธุ์เริ่มแน่นแฟ้นและหนักแน่นมากขึ้น สิงโตขาวตัวน้อยแปรเปลี่ยนเป็นเจ้าป่าโตเต็มวัยสง่างามมีอาได้ค้นพบความจริงที่โหดร้าย เมื่อพ่อของเธอตัดสินใจจะขายชาร์ลีให้กับนายพรานใจเหี้ยมไว้ใช้ประดับบารมีทางออกสุดท้ายที่มีอาตัดสินใจเลือกคือ พาเพื่อนซี้ชาร์ลีหนีออกจากฟาร์มแห่งนี้เพื่อให้สิงโตที่เธอรักรอดพ้นจากชะตากรรมอันโหดร้ายที่รออยู่ถึงเวลาที่เด็กผู้หญิงและสิงโตขาวจะออกเดินทางสู่เป้าหมายของชีวิตด้วยพลังแห่งมิตรภาพอันยิ่งใหญ่เกินกว่าใครๆ จะคาดคิด

พบกับภาพยนตร์ดัดแปลงจากนิยายขายดีของฝรั่งเศสจนสร้างปรากฏการณ์ฟีลกู๊ดสุดอบอุ่นหัวใจ Mia and the White Lion มีอากับมิตรภาพมหัศจรรย์นำแสดงโดยนักแสดงเด็ก ดานิยาห์ เดอ วิลลิเยร์ส์ เธอทุ่มเทใช้เวลาถ่ายทำภาพยนตร์เรื่องนี้นานถึง 3 ปีเพื่อเติบโตตามเนื้อเรื่องไปพร้อมกับสิงโตขาวอย่างสม จริงที่สุดและสัมผัสได้ถึงความผูกผันที่ทั้งสองมีต่อกันเรียกได้ว่าเป็นคู่ซี้ต่างสายพันธุ์ทั้งในและนอกจอเลยก็ว่าได้!!!

Complete name : [MINI Super-HQ]_Mia.and.the.White.Lion.2018.1080p.BrRip.DTS.x264.One2loadup.com.mkv
Format : Matroska
Format version : Version 4
File size : 3.91 GiB
Duration : 1 h 38 min
Overall bit rate : 5 697 kb/s
Movie name : [MINI Super-HQ]_Mia.and.the.White.Lion.2018.1080p.BrRip.DTS.x264.One2loadup.com
Encoded date : UTC 2010-02-22 21:41:31
Writing application : mkvmerge v5.9.0 (‘On The Loose’) built on Dec 9 2012 15:37:01
Writing library : libebml v1.3.0 + libmatroska v1.4.0

Video
ID : 1
Format : AVC
Format/Info : Advanced Video Codec
Format profile : [email protected]
Format settings : CABAC / 4 Ref Frames
Format settings, CABAC : Yes
Format settings, ReFrames : 4 frames
Codec ID : V_MPEG4/ISO/AVC
Duration : 1 h 38 min
Bit rate : 4 350 kb/s
Width : 1 920 pixels
Height : 804 pixels
Display aspect ratio : 2.40:1
Frame rate mode : Constant
Frame rate : 23.976 (24000/1001) FPS
Color space : YUV
Chroma subsampling : 4:2:0
Bit depth : 8 bits
Scan type : Progressive
Bits/(Pixel*Frame) : 0.118
Stream size : 3.01 GiB (77%)
Title : [MINI Super-HQ]_Mia.and.the.White.Lion.2018.1080p.BrRip.DTS.x264.One2loadup.com
Writing library : x264 core 146 r2538 121396c
Encoding settings : cabac=1 / ref=5 / deblock=1:-3:-3 / analyse=0x3:0x133 / me=tesa / subme=11 / psy=1 / psy_rd=1.00:0.15 / mixed_ref=1 / me_range=48 / chroma_me=1 / trellis=2 / 8x8dct=1 / cqm=0 / deadzone=21,11 / fast_pskip=1 / chroma_qp_offset=-3 / threads=54 / lookahead_threads=4 / sliced_threads=0 / nr=0 / decimate=1 / interlaced=0 / bluray_compat=1 / constrained_intra=0 / bframes=3 / b_pyramid=1 / b_adapt=2 / b_bias=0 / direct=3 / weightb=1 / open_gop=0 / weightp=1 / keyint=250 / keyint_min=1 / scenecut=40 / intra_refresh=0 / rc_lookahead=60 / rc=2pass / mbtree=1 / bitrate=4350 / ratetol=1.0 / qcomp=0.60 / qpmin=0 / qpmax=69 / qpstep=4 / cplxblur=20.0 / qblur=0.5 / ip_ratio=1.40 / aq=1:1.30
Language : English
Default : Yes
Forced : No

Audio #1
ID : 2
Format : AC-3
Format/Info : Audio Coding 3
Commercial name : Dolby Digital
Codec ID : A_AC3
Duration : 1 h 38 min
Bit rate mode : Constant
Bit rate : 448 kb/s
Channel(s) : 6 channels
Channel layout : L R C LFE Ls Rs
Sampling rate : 48.0 kHz
Frame rate : 31.250 FPS (1536 SPF)
Bit depth : 16 bits
Compression mode : Lossy
Stream size : 315 MiB (8%)
Title : Thai DVD Master
Language : Thai
Service kind : Complete Main
Default : Yes
Forced : Yes

Audio #2
ID : 3
Format : DTS
Format/Info : Digital Theater Systems
Codec ID : A_DTS
Duration : 1 h 38 min
Bit rate mode : Constant
Bit rate : 755 kb/s
Channel(s) : 6 channels
Channel layout : C L R Ls Rs LFE
Sampling rate : 48.0 kHz
Frame rate : 93.750 FPS (512 SPF)
Bit depth : 24 bits
Compression mode : Lossy
Stream size : 530 MiB (13%)
Title : English DTS
Language : English
Default : No
Forced : No

Text #1
ID : 4
Format : VobSub
Codec ID : S_VOBSUB
Codec ID/Info : Picture based subtitle format used on DVDs
Title : Thai 480p From DVD Master
Language : Thai
Default : No
Forced : No

Text #2
ID : 5
Format : VobSub
Codec ID : S_VOBSUB
Codec ID/Info : Picture based subtitle format used on DVDs
Title : Thai 720p
Language : Thai
Default : No
Forced : No

Text #3
ID : 6
Format : VobSub
Codec ID : S_VOBSUB
Codec ID/Info : Picture based subtitle format used on DVDs
Title : Thai 1080p
Language : Thai
Default : Yes
Forced : Yes

Text #4
ID : 7
Format : VobSub
Codec ID : S_VOBSUB
Codec ID/Info : Picture based subtitle format used on DVDs
Title : Thai 1080p Yellow
Language : Thai
Default : No
Forced : No

Text #5
ID : 8
Format : VobSub
Codec ID : S_VOBSUB
Codec ID/Info : Picture based subtitle format used on DVDs
Title : Thai 1080p Out
Language : Thai
Default : No
Forced : No

Text #6
ID : 9
Format : VobSub
Codec ID : S_VOBSUB
Codec ID/Info : Picture based subtitle format used on DVDs
Title : Thai 1080p BIG
Language : Thai
Default : No
Forced : No

Text #7
ID : 10
Format : VobSub
Codec ID : S_VOBSUB
Codec ID/Info : Picture based subtitle format used on DVDs
Title : Thai 1080p Out [BIG]
Language : Thai
Default : No
Forced : No

Text #8
ID : 11
Format : PGS
Codec ID : S_HDMV/PGS
Codec ID/Info : Picture based subtitle format used on BDs/HD-DVDs
Title : Thai PGS
Language : Thai
Default : No
Forced : No

Text #9
ID : 12
Format : PGS
Codec ID : S_HDMV/PGS
Codec ID/Info : Picture based subtitle format used on BDs/HD-DVDs
Title : Thai PGS Yellow
Language : Thai
Default : No
Forced : No

Text #10
ID : 13
Format : PGS
Codec ID : S_HDMV/PGS
Codec ID/Info : Picture based subtitle format used on BDs/HD-DVDs
Title : Thai PGS Out
Language : Thai
Default : No
Forced : No

Text #11
ID : 14
Format : VobSub
Codec ID : S_VOBSUB
Codec ID/Info : Picture based subtitle format used on DVDs
Title : English
Language : English
Default : No
Forced : No

DOWNLOAD


PART01 |||| PART02 |||| PART03 |||| PART04

PART01 |||| PART02 |||| PART03 |||| PART04

PART01 |||| PART02 |||| PART03 |||| PART04

PART01 |||| PART02 |||| PART03 |||| PART04


Leave A Reply

Your email address will not be published.

%d bloggers like this: