[MINI Super-HQ] Men in Black: International (2019) เอ็มไอบี หน่วยจารชนสากลพิทักษ์โลก [1080p] [พากย์ไทย 5.1 + เสียงอังกฤษ DTS] [บรรยายไทย + อังกฤษ] [เสียงไทย + ซับไทย] [OPENLOAD]

6

Men in Black: International (2019)

โหลดหนัง Men in Black: International (2019) เอ็มไอบี หน่วยจารชนสากลพิทักษ์โลก

Men in Black: International (2019) 1h 54min | Action, Adventure, Comedy | 14 June 2019 (Canada) Summary: The Men in Black have always protected the Earth from the scum of the universe. In this new adventure, they tackle their biggest threat to date: a mole in the Men in Black organization.
Countries: USALanguages: English, French

เรื่องย่อ Men in Black: International (2019) เอ็มไอบี หน่วยจารชนสากลพิทักษ์โลก

หนังไซไฟคอเมดี้เรื่องนี้ได้ Chris Hemsworth และ Tessa Thompson นักแสดงคู่หูจาก Thor: Ragnarokกลับมาร่วมงานกันอีกครั้งในบท เจ้าหน้าที่ H และ M โดยเรื่องราวจะเป็นการแก้ไขคดีฆาตกรรมลึกลับที่ส่งผล กระทบไปทั่วโลและมีความเกี่ยวพันกับเหล่าเอเลี่ยนที่อาศัยอยู่บนโลกด้วย ในภาคนี้นักแสดงหลักอย่างภาคก่อนอย่าง Tommy Lee Jones และ Will Smith จะไม่กลับมาแต่ทั้งคู่ก็ยังอยู่ในจักรวาลเดียวกันกับหนังเรื่องนี้โดยหากเราสังเกตดีๆในตัวอย่างเราจะเห็นรูปภาพของพวกเขาอยู่ด้วย!!!

Complete name : [MINI Super-HQ]_Men.in.Black.International.2019.1080p.BrRip.DTS.x264.One2loadup.com.mkv
Format : Matroska
Format version : Version 4
File size : 4.05 GiB
Duration : 1 h 54 min
Overall bit rate : 5 047 kb/s
Movie name : [MINI Super-HQ]_Men.in.Black.International.2019.1080p.BrRip.DTS.x264.One2loadup.com
Encoded date : UTC 2010-02-22 21:41:31
Writing application : mkvmerge v5.9.0 (‘On The Loose’) built on Dec 9 2012 15:37:01
Writing library : libebml v1.3.0 + libmatroska v1.4.0

Video
ID : 1
Format : AVC
Format/Info : Advanced Video Codec
Format profile : [email protected]
Format settings : CABAC / 4 Ref Frames
Format settings, CABAC : Yes
Format settings, ReFrames : 4 frames
Codec ID : V_MPEG4/ISO/AVC
Duration : 1 h 54 min
Bit rate : 3 450 kb/s
Width : 1 920 pixels
Height : 960 pixels
Display aspect ratio : 2.000
Frame rate mode : Constant
Frame rate : 23.976 (24000/1001) FPS
Color space : YUV
Chroma subsampling : 4:2:0
Bit depth : 8 bits
Scan type : Progressive
Bits/(Pixel*Frame) : 0.078
Stream size : 2.85 GiB (70%)
Title : [MINI Super-HQ]_Men.in.Black.International.2019.1080p.BrRip.DTS.x264.One2loadup.com
Writing library : x264 core 146 r2538 121396c
Encoding settings : cabac=1 / ref=5 / deblock=1:-3:-3 / analyse=0x3:0x133 / me=tesa / subme=11 / psy=1 / psy_rd=1.00:0.15 / mixed_ref=1 / me_range=48 / chroma_me=1 / trellis=2 / 8x8dct=1 / cqm=0 / deadzone=21,11 / fast_pskip=1 / chroma_qp_offset=-3 / threads=54 / lookahead_threads=4 / sliced_threads=0 / nr=0 / decimate=1 / interlaced=0 / bluray_compat=1 / constrained_intra=0 / bframes=3 / b_pyramid=1 / b_adapt=2 / b_bias=0 / direct=3 / weightb=1 / open_gop=0 / weightp=1 / keyint=250 / keyint_min=1 / scenecut=40 / intra_refresh=0 / rc_lookahead=60 / rc=2pass / mbtree=1 / bitrate=3450 / ratetol=1.0 / qcomp=0.60 / qpmin=0 / qpmax=69 / qpstep=4 / cplxblur=20.0 / qblur=0.5 / ip_ratio=1.40 / aq=1:1.30
Language : English
Default : Yes
Forced : No

Audio #1
ID : 2
Format : AC-3
Format/Info : Audio Coding 3
Commercial name : Dolby Digital
Codec ID : A_AC3
Duration : 1 h 54 min
Bit rate mode : Constant
Bit rate : 640 kb/s
Channel(s) : 6 channels
Channel layout : L R C LFE Ls Rs
Sampling rate : 48.0 kHz
Frame rate : 31.250 FPS (1536 SPF)
Bit depth : 16 bits
Compression mode : Lossy
Stream size : 526 MiB (13%)
Title : Thai BluRay Master
Language : Thai
Service kind : Complete Main
Default : Yes
Forced : Yes

Audio #2
ID : 3
Format : DTS
Format/Info : Digital Theater Systems
Codec ID : A_DTS
Duration : 1 h 54 min
Bit rate mode : Constant
Bit rate : 755 kb/s
Channel(s) : 6 channels
Channel layout : C L R Ls Rs LFE
Sampling rate : 48.0 kHz
Frame rate : 93.750 FPS (512 SPF)
Bit depth : 24 bits
Compression mode : Lossy
Stream size : 620 MiB (15%)
Title : English DTS
Language : English
Default : No
Forced : No

Text #1
ID : 4
Format : VobSub
Codec ID : S_VOBSUB
Codec ID/Info : Picture based subtitle format used on DVDs
Title : Thai 480p
Language : Thai
Default : No
Forced : No

Text #2
ID : 5
Format : VobSub
Codec ID : S_VOBSUB
Codec ID/Info : Picture based subtitle format used on DVDs
Title : Thai 720p
Language : Thai
Default : No
Forced : No

Text #3
ID : 6
Format : VobSub
Codec ID : S_VOBSUB
Codec ID/Info : Picture based subtitle format used on DVDs
Title : Thai 1080p
Language : Thai
Default : Yes
Forced : Yes

Text #4
ID : 7
Format : VobSub
Codec ID : S_VOBSUB
Codec ID/Info : Picture based subtitle format used on DVDs
Title : Thai 1080p Yellow
Language : Thai
Default : No
Forced : No

Text #5
ID : 8
Format : VobSub
Codec ID : S_VOBSUB
Codec ID/Info : Picture based subtitle format used on DVDs
Title : Thai 1080p Out
Language : Thai
Default : No
Forced : No

Text #6
ID : 9
Format : VobSub
Codec ID : S_VOBSUB
Codec ID/Info : Picture based subtitle format used on DVDs
Title : Thai 1080p BIG
Language : Thai
Default : No
Forced : No

Text #7
ID : 10
Format : VobSub
Codec ID : S_VOBSUB
Codec ID/Info : Picture based subtitle format used on DVDs
Title : Thai 1080p Out [BIG]
Language : Thai
Default : No
Forced : No

Text #8
ID : 11
Format : PGS
Codec ID : S_HDMV/PGS
Codec ID/Info : Picture based subtitle format used on BDs/HD-DVDs
Title : Thai PGS BluRay Master
Language : Thai
Default : No
Forced : No

Text #9
ID : 12
Format : PGS
Codec ID : S_HDMV/PGS
Codec ID/Info : Picture based subtitle format used on BDs/HD-DVDs
Title : Thai PGS Yellow
Language : Thai
Default : No
Forced : No

Text #10
ID : 13
Format : PGS
Codec ID : S_HDMV/PGS
Codec ID/Info : Picture based subtitle format used on BDs/HD-DVDs
Title : Thai PGS Out
Language : Thai
Default : No
Forced : No

Text #11
ID : 14
Format : PGS
Codec ID : S_HDMV/PGS
Codec ID/Info : Picture based subtitle format used on BDs/HD-DVDs
Title : English
Language : English
Default : No
Forced : No

Menu
00:00:00.000 : en:1
00:08:08.029 : en:2
00:15:42.441 : en:3
00:20:18.924 : en:4
00:27:26.475 : en:5
00:34:38.989 : en:6
00:46:19.605 : en:7
00:50:41.365 : en:8
00:59:10.540 : en:9
01:03:22.250 : en:10
01:11:00.749 : en:11
01:14:45.264 : en:12
01:25:40.543 : en:13
01:28:58.907 : en:14
01:34:38.579 : en:15
01:43:41.162 : en:16

DOWNLOAD


PART01 |||| PART02 |||| PART03 |||| PART04 |||| PART05

PART01 |||| PART02 |||| PART03 |||| PART04 |||| PART05

PART01 |||| PART02 |||| PART03 |||| PART04 |||| PART05

PART01 |||| PART02 |||| PART03 |||| PART04 |||| PART05


6 Comments
  1. fa says

    แตกไฟล์ของโอเพ่นโหลดไมไ่ด้อ่ะค่ะพาสสอง ไฟล์เหมือคนละไฟล์กัน T___T

    1. Admin
      Admin says

      แยกไฟล์ไม่ได้แนะนำให้ใช้ winrar เวอร์ชั่นล่าสุดฮ๊ะ

      1. ฟสก. says

        มันไม่ได้อ่ะค่ะ
        ชื่อไฟล์ข้างในก็ไม่เหมือนกันแล้ว ของตัวโอเพ่นโหลดเป็นไฟล์ชื่ออีกอัน ตัวโหลดอื่นเป็นไฟล์ชื่ออีกอัน

        ขึ้นตามนี้อ่ะค่ะ แตกไฟล์แล้วมันหาพาทที่ 2 พอเลือกอันที่โหลดมาพาท 2 มันแตกไม่ได้ค่ะขึ้นเออเร่อน่าจะเพราะไฟล์ที่อัพมาไม่เข้ากันเพราะชื่อข้างในคนละชื่อด้วยรึเปล่าคะ อันนี้ไปโหลด winrar ล่าสุดจากเว็บมาเลยนะคะ

        รุปไฟล์เออเร่อค่ะ

        https://sv1.picz.in.th/images/2019/09/19/c4q7il.png

        1. Admin
          Admin says

          เราทดสอบแล้วก็ไฟล์ชื่อเหมือนกัน ไม่เห็นต่างกันตรงไหน ไม่ทราบว่าโหลดจากเชิฟเวอร์ไหน ฮ๊ะ จะได้เช็คให้อีกที https://ibb.co/LhFCPDh

  2. ฤฤฤ says

    แตกไฟลไม่ได้

    1. Admin
      Admin says

      แนะนำให้ใช้ winrar เวอร์ชั่นล่าสุดฮ๊ะ

Leave A Reply

Your email address will not be published.