เว็บโหลดหนัง HD MINI-HD SUPER-HQ Full-HD 1080p One2up VIP Master Zoom ซูม หนังใหม่ ออนไลน์ มาสเตอร์ ไทย จีน ฝรั่ง การ์ตูน

[MINI Super-HQ] Logan (2017) โลแกน เดอะ วูล์ฟเวอรีน ภาค 9 [1080P] [พากย์ไทย 5.1 + อังกฤษ DTS] [บรรยายไทย + อังกฤษ] [เสียงไทย + ซับไทย] [ONE2UP]

0

โหลดหนัง  Logan (2017) โลแกน เดอะ วูล์ฟเวอรีน ภาค 9

เรื่องย่อ Logan (2017) โลแกน เดอะ วูล์ฟเวอรีน ภาค 9

เรื่องราวที่เกิดขึ้นในปี 2029 มนุษย์กลายพันธุ์ตกอยู่ในภาวะใกล้สาบสูญ โลแกนผู้โดดเดี่ยวท้อแท้ได้แต่ดื่มเหล้าไปวันๆ ในที่หลบภัยอันห่างไกลแถบชายแดนเม็กซิโกและหารายได้เล็กๆ น้อยๆ จากการเป็นคนขับรถรับจ้าง เพื่อนผู้ลี้ภัยของเขาคือแคลิแบนผู้ถูกเนรเทศ รวมถึงศาสตราจารย์เอ็กซ์ซึ่งกำลังป่วยและพลังจิตถูกรบกวนจากอาการชักที่หนักขึ้นเรื่อยๆ แต่แล้วโลแกนกลับต้องล้มเลิกความตั้งใจที่จะหลบเลี่ยงโลกภายนอกและชีวิตที่ผ่านมา เมื่อหญิงลึกลับปรากฏตัวขึ้นพร้อมคำขอร้องเร่งด่วน เธอขอให้โลแกนช่วยพาเด็กสาวที่มีความพิเศษคนหนึ่งไปส่งยังที่ปลอดภัยในไม่ช้าโลแกนก็ต้องใช้กรงเล็บเพื่อเผชิญกับพลังมืดและวายร้ายจากอดีตของเขาเองในภารกิจเสี่ยงตาย ภารกิจครั้งนี้จะนำนักสู้ผู้ผ่านกาลเวลามาเนิ่นนานสู่หนทางเพื่อบรรลุโชคชะตาของตนเอง

Complete name : [MINI Super-HQ]_9.Logan.2017.1080p.BrRip.DTS.x264.One2loadup.com.mkv
Format : Matroska
Format version : Version 4 / Version 2
File size : 4.18 GiB
Duration : 2 h 17 min
Overall bit rate : 4 351 kb/s
Movie name : [MINI Super-HQ]_9.Logan.2017.1080p.BrRip.DTS.x264.One2loadup.com
Encoded date : UTC 2010-02-22 21:41:31
Writing application : mkvmerge v5.9.0 (‘On The Loose’) built on Dec 9 2012 15:37:01
Writing library : libebml v1.3.0 + libmatroska v1.4.0

Video
ID : 1
Format : AVC
Format/Info : Advanced Video Codec
Format profile : [email protected]
Format settings, CABAC : Yes
Format settings, RefFrames : 4 frames
Codec ID : V_MPEG4/ISO/AVC
Duration : 2 h 17 min
Bit rate : 3 003 kb/s
Width : 1 920 pixels
Height : 800 pixels
Display aspect ratio : 2.40:1
Frame rate mode : Constant
Frame rate : 23.976 FPS
Color space : YUV
Chroma subsampling : 4:2:0
Bit depth : 8 bits
Scan type : Progressive
Bits/(Pixel*Frame) : 0.082
Stream size : 2.94 GiB (70%)
Title : [MINI Super-HQ]_9.Logan.2017.1080p.BrRip.DTS.x264.One2loadup.com
Writing library : x264 core 130 r2273 b3065e6
Encoding settings : cabac=1 / ref=3 / deblock=1:0:0 / analyse=0x3:0x113 / me=umh / subme=11 / psy=1 / psy_rd=1.00:0.00 / mixed_ref=1 / me_range=64 / chroma_me=1 / trellis=2 / 8x8dct=1 / cqm=0 / deadzone=21,11 / fast_pskip=1 / chroma_qp_offset=-2 / threads=9 / lookahead_threads=1 / sliced_threads=0 / nr=0 / decimate=1 / interlaced=0 / bluray_compat=0 / constrained_intra=0 / bframes=3 / b_pyramid=2 / b_adapt=1 / b_bias=0 / direct=1 / weightb=1 / open_gop=0 / weightp=2 / keyint=240 / keyint_min=24 / scenecut=40 / intra_refresh=0 / rc_lookahead=40 / rc=2pass / mbtree=1 / bitrate=3003 / ratetol=1.0 / qcomp=0.60 / qpmin=0 / qpmax=69 / qpstep=4 / cplxblur=20.0 / qblur=0.5 / ip_ratio=1.40 / aq=1:1.00
Language : English
Default : Yes
Forced : No
Color range : Limited
Color primaries : BT.709
Transfer characteristics : BT.709
Matrix coefficients : BT.709

Audio #1
ID : 2
Format : AC-3
Format/Info : Audio Coding 3
Format settings, Endianness : Big
Codec ID : A_AC3
Duration : 2 h 17 min
Bit rate mode : Constant
Bit rate : 448 kb/s
Channel(s) : 6 channels
Channel positions : Front: L C R, Side: L R, LFE
Sampling rate : 48.0 kHz
Frame rate : 31.250 FPS (1536 SPF)
Bit depth : 16 bits
Compression mode : Lossy
Stream size : 440 MiB (10%)
Title : Thai BluRay Master
Language : Thai
Service kind : Complete Main
Default : Yes
Forced : Yes

Audio #2
ID : 3
Format : DTS
Format/Info : Digital Theater Systems
Mode : 16
Format settings, Endianness : Big
Codec ID : A_DTS
Duration : 2 h 17 min
Bit rate mode : Constant
Bit rate : 755 kb/s
Channel(s) : 6 channels
Channel positions : Front: L C R, Side: L R, LFE
Sampling rate : 48.0 kHz
Frame rate : 93.750 FPS (512 SPF)
Bit depth : 24 bits
Compression mode : Lossy
Stream size : 741 MiB (17%)
Title : English DTS
Language : English
Default : No
Forced : No

Text #1
ID : 4
Format : VobSub
Codec ID : S_VOBSUB
Codec ID/Info : Picture based subtitle format used on DVDs
Title : Thai 480p
Language : Thai
Default : No
Forced : No

Text #2
ID : 5
Format : VobSub
Codec ID : S_VOBSUB
Codec ID/Info : Picture based subtitle format used on DVDs
Title : Thai 1080p
Language : Thai
Default : Yes
Forced : Yes

Text #3
ID : 6
Format : VobSub
Codec ID : S_VOBSUB
Codec ID/Info : Picture based subtitle format used on DVDs
Title : Thai 1080p Yellow
Language : Thai
Default : No
Forced : No

Text #4
ID : 7
Format : VobSub
Codec ID : S_VOBSUB
Codec ID/Info : Picture based subtitle format used on DVDs
Title : Thai 1080p Out
Language : Thai
Default : No
Forced : No

Text #5
ID : 8
Format : VobSub
Codec ID : S_VOBSUB
Codec ID/Info : Picture based subtitle format used on DVDs
Title : Thai 1080p BIG
Language : Thai
Default : No
Forced : No

Text #6
ID : 9
Format : VobSub
Codec ID : S_VOBSUB
Codec ID/Info : Picture based subtitle format used on DVDs
Title : Thai 1080p Out [BIG]
Language : Thai
Default : No
Forced : No

Text #7
ID : 10
Format : PGS
Codec ID : S_HDMV/PGS
Codec ID/Info : Picture based subtitle format used on BDs/HD-DVDs
Title : Thai PGS BluRay Master
Language : Thai
Default : No
Forced : No

Text #8
ID : 11
Format : PGS
Codec ID : S_HDMV/PGS
Codec ID/Info : Picture based subtitle format used on BDs/HD-DVDs
Title : Thai PGS Yellow
Language : Thai
Default : No
Forced : No

Text #9
ID : 12
Format : PGS
Codec ID : S_HDMV/PGS
Codec ID/Info : Picture based subtitle format used on BDs/HD-DVDs
Title : Thai PGS Out
Language : Thai
Default : No
Forced : No

Text #10
ID : 13
Format : PGS
Codec ID : S_HDMV/PGS
Codec ID/Info : Picture based subtitle format used on BDs/HD-DVDs
Title : English
Language : English
Default : No
Forced : No

Menu
00:00:00.000 : en:Chapter 1
00:05:35.144 : en:Chapter 2
00:09:18.575 : en:Chapter 3
00:11:41.176 : en:Chapter 4
00:16:23.249 : en:Chapter 5
00:20:11.686 : en:Chapter 6
00:24:26.107 : en:Chapter 7
00:26:11.921 : en:Chapter 8
00:30:12.453 : en:Chapter 9
00:31:59.143 : en:Chapter 10
00:34:56.904 : en:Chapter 11
00:39:53.450 : en:Chapter 12
00:42:55.590 : en:Chapter 13
00:45:03.843 : en:Chapter 14
00:47:53.429 : en:Chapter 15
00:49:39.577 : en:Chapter 16
00:52:14.440 : en:Chapter 17
00:54:30.534 : en:Chapter 18
00:57:44.228 : en:Chapter 19
01:00:10.416 : en:Chapter 20
01:03:53.847 : en:Chapter 21
01:06:55.529 : en:Chapter 22
01:09:54.791 : en:Chapter 23
01:13:15.909 : en:Chapter 24
01:18:43.110 : en:Chapter 25
01:21:50.214 : en:Chapter 26
01:25:52.206 : en:Chapter 27
01:28:38.831 : en:Chapter 28
01:32:41.448 : en:Chapter 29
01:35:29.741 : en:Chapter 30
01:41:03.449 : en:Chapter 31
01:43:39.897 : en:Chapter 32
01:49:39.006 : en:Chapter 33
01:54:19.912 : en:Chapter 34
01:57:00.447 : en:Chapter 35
01:59:20.420 : en:Chapter 36
02:01:13.617 : en:Chapter 37
02:05:09.644 : en:Chapter 38
02:06:40.568 : en:Chapter 39
02:11:07.877 : en:Chapter 40

 

 


PART01 |||| PART02 |||| PART03 |||| PART04 |||| PART05

PART01 |||| PART02 |||| PART03 |||| PART04 |||| PART05

PART01 |||| PART02 |||| PART03 |||| PART04 |||| PART05

PART01 |||| PART02 |||| PART03 |||| PART04 |||| PART05


Leave A Reply

Your email address will not be published.

%d bloggers like this: