[MINI Super-HQ] Legion (2010) สงครามเทวาล้างนรก [1080p] [พากย์ไทย DTS + เสียงอังกฤษ DTS] [บรรยายไทย + อังกฤษ] [เสียงไทย + ซับไทย] [OPENLOAD]

0

โหลดหนัง  Legion (2010) สงครามเทวาล้างนรก

เรื่องย่อ Legion (2010) สงครามเทวาล้างนรก

โลกกำลังจะกลายเป็นฝันร้ายในยามตื่นสำหรับมนุษย์ที่เหลือรอดอยู่ ขณะที่กลุ่มฆาตกรบ้าคลั่งกลุ่มแล้วกลุ่มเล่าออกตามหาเหยื่อใหม่ๆ ตามหลังมาด้วยกลุ่มเทวทูตนักรบที่มีเป้าหมายเพื่อการทำลายล้างเพียงอย่างเดียว เรื่องราวน่าสะพรึงกลัวที่ทำให้เรานึกถึงวันสิ้นโลก ร้านอาหารริมถนนที่อยู่ห่างไกลผู้คนเปิดกิจการตามปกติ บริกรสาวสวย ชาร์ลี (เอเดรียนน์ พาลิกกี) ซึ่งกำลังตั้งครรภ์ นำอาหารเช้ามาเสิร์ฟให้คู่สามีภรรยาผู้มั่งคั่งแถบชานเมือง แซนดรา (เคต วอลช์) และ โฮเวิร์ด (จอน เทนนีย์) รวมถึงลูกสาววัยรุ่นของพวกเขา ออเดรย์ (วิลลา ฮอลแลนด์) ระหว่างที่พวกเขารอให้ จีป (ลูคัส แบล็ก) ลูกชายของ บ็อบ (เดนนิส เควด) ซ่อมรถให้      สัญญาณโทรทัศน์กลายเป็นคลื่นแทรกจนกระทั่งดับหายไป พวกเขาจึงตระหนักว่าตนขาดการติดต่อกับโลกภายนอกเสียแล้ว ขณะที่กำลังพยายามทำความเข้าใจสิ่งที่เกิดขึ้นว่ามันคือแผ่นดินไหว การก่อการร้าย หรือเหตุการณ์ประหลาดอื่นใดกันแน่ ชายแปลกหน้าคนหนึ่ง (พอล เบตตานี) ก็เข้ามาในร้าน แล้วบอกชาร์ลีว่าทารกในท้องของเธอคือความหวังเพียงหนึ่งเดียวของมนุษยชาติ และเขาจะทำทุกอย่างเพื่อช่วยชีวิตเด็กคนนี้เอาไว้!!

Complete name : [MINI Super-HQ]_Legion.2010.1080p.BDRip.DTS.x264.One2loadup.com.mkv
Format : Matroska
Format version : Version 4
File size : 5.21 GiB
Duration : 1 h 40 min
Overall bit rate : 7 445 kb/s
Movie name : [MINI Super-HQ]_Legion.2010.1080p.BDRip.DTS.x264.One2loadup.com
Encoded date : UTC 2017-11-14 17:02:25
Writing application : mkvmerge v17.0.0 (‘Be Ur Friend’) 64-bit
Writing library : libebml v1.3.5 + libmatroska v1.4.8
Cover : Yes
Attachments : cover.jpg

Video
ID : 1
Format : AVC
Format/Info : Advanced Video Codec
Format profile : H[email protected]
Format settings : CABAC / 5 Ref Frames
Format settings, CABAC : Yes
Format settings, ReFrames : 5 frames
Codec ID : V_MPEG4/ISO/AVC
Duration : 1 h 40 min
Bit rate : 5 801 kb/s
Width : 1 920 pixels
Height : 800 pixels
Display aspect ratio : 2.40:1
Frame rate mode : Constant
Frame rate : 23.976 (24000/1001) FPS
Color space : YUV
Chroma subsampling : 4:2:0
Bit depth : 8 bits
Scan type : Progressive
Bits/(Pixel*Frame) : 0.158
Stream size : 4.06 GiB (78%)
Title : [MINI Super-HQ]_Legion.2010.1080p.BDRip.DTS.x264.One2loadup.com
Writing library : x264 core 146 r2538 121396c
Encoding settings : cabac=1 / ref=5 / deblock=1:-1:-1 / analyse=0x3:0x113 / me=umh / subme=11 / psy=1 / psy_rd=1.00:0.00 / mixed_ref=1 / me_range=32 / chroma_me=1 / trellis=2 / 8x8dct=1 / cqm=0 / deadzone=21,11 / fast_pskip=0 / chroma_qp_offset=-2 / threads=3 / lookahead_threads=1 / sliced_threads=0 / nr=0 / decimate=1 / interlaced=0 / bluray_compat=0 / constrained_intra=0 / bframes=8 / b_pyramid=2 / b_adapt=2 / b_bias=0 / direct=3 / weightb=1 / open_gop=0 / weightp=2 / keyint=250 / keyint_min=23 / scenecut=40 / intra_refresh=0 / rc_lookahead=60 / rc=2pass / mbtree=0 / bitrate=5801 / ratetol=1.0 / qcomp=0.60 / qpmin=0 / qpmax=69 / qpstep=4 / cplxblur=20.0 / qblur=0.5 / vbv_maxrate=14000 / vbv_bufsize=14000 / nal_hrd=none / filler=0 / ip_ratio=1.40 / pb_ratio=1.30 / aq=2:1.00
Language : English
Default : Yes
Forced : No
Color range : Limited
Color primaries : Generic film
Matrix coefficients : YCgCo

Audio #1
ID : 2
Format : DTS
Format/Info : Digital Theater Systems
Codec ID : A_DTS
Duration : 1 h 40 min
Bit rate mode : Constant
Bit rate : 755 kb/s
Channel(s) : 6 channels
Channel layout : C L R Ls Rs LFE
Sampling rate : 48.0 kHz
Frame rate : 93.750 FPS (512 SPF)
Bit depth : 24 bits
Compression mode : Lossy
Stream size : 540 MiB (10%)
Title : Thai DTS 5.1 Master
Language : Thai
Default : Yes
Forced : Yes

Audio #2
ID : 3
Format : DTS
Format/Info : Digital Theater Systems
Codec ID : A_DTS
Duration : 1 h 40 min
Bit rate mode : Constant
Bit rate : 755 kb/s
Channel(s) : 6 channels
Channel layout : C L R Ls Rs LFE
Sampling rate : 48.0 kHz
Frame rate : 93.750 FPS (512 SPF)
Bit depth : 24 bits
Compression mode : Lossy
Stream size : 540 MiB (10%)
Title : Eng DTS 5.1
Language : English
Default : No
Forced : No

Text #1
ID : 4
Format : UTF-8
Codec ID : S_TEXT/UTF8
Codec ID/Info : UTF-8 Plain Text
Duration : 1 h 32 min
Bit rate : 42 b/s
Count of elements : 859
Stream size : 29.0 KiB (0%)
Title : Eng SRT
Language : English
Default : No
Forced : No

Text #2
ID : 5
Format : PGS
Muxing mode : zlib
Codec ID : S_HDMV/PGS
Codec ID/Info : Picture based subtitle format used on BDs/HD-DVDs
Duration : 1 h 39 min
Bit rate : 23.1 kb/s
Count of elements : 1724
Stream size : 16.4 MiB (0%)
Title : Thai PGS Bluray Master
Language : Thai
Default : Yes
Forced : Yes

Text #3
ID : 6
Format : PGS
Muxing mode : zlib
Codec ID : S_HDMV/PGS
Codec ID/Info : Picture based subtitle format used on BDs/HD-DVDs
Duration : 1 h 39 min
Bit rate : 23.1 kb/s
Count of elements : 1724
Stream size : 16.4 MiB (0%)
Title : Thai PGS Bluray Master LOW
Language : Thai
Default : No
Forced : No

Text #4
ID : 7
Format : VobSub
Muxing mode : zlib
Codec ID : S_VOBSUB
Codec ID/Info : Picture based subtitle format used on DVDs
Duration : 1 h 31 min
Bit rate : 2 007 b/s
Count of elements : 861
Stream size : 1.32 MiB (0%)
Title : Thai 480p
Language : Thai
Default : No
Forced : No

Text #5
ID : 8
Format : VobSub
Muxing mode : zlib
Codec ID : S_VOBSUB
Codec ID/Info : Picture based subtitle format used on DVDs
Duration : 1 h 31 min
Bit rate : 2 007 b/s
Count of elements : 861
Stream size : 1.32 MiB (0%)
Title : Thai 480p LOW
Language : Thai
Default : No
Forced : No

Text #6
ID : 9
Format : VobSub
Muxing mode : zlib
Codec ID : S_VOBSUB
Codec ID/Info : Picture based subtitle format used on DVDs
Duration : 1 h 31 min
Bit rate : 6 669 b/s
Count of elements : 861
Stream size : 4.38 MiB (0%)
Title : Thai 1080p
Language : Thai
Default : No
Forced : No

Text #7
ID : 10
Format : VobSub
Muxing mode : zlib
Codec ID : S_VOBSUB
Codec ID/Info : Picture based subtitle format used on DVDs
Duration : 1 h 31 min
Bit rate : 6 669 b/s
Count of elements : 861
Stream size : 4.38 MiB (0%)
Title : Thai 1080p LOW
Language : Thai
Default : No
Forced : No

Text #8
ID : 11
Format : PGS
Muxing mode : zlib
Codec ID : S_HDMV/PGS
Codec ID/Info : Picture based subtitle format used on BDs/HD-DVDs
Duration : 1 h 31 min
Bit rate : 30.1 kb/s
Count of elements : 1722
Stream size : 19.8 MiB (0%)
Title : Thai PGS Angsana
Language : Thai
Default : No
Forced : No

Text #9
ID : 12
Format : PGS
Muxing mode : zlib
Codec ID : S_HDMV/PGS
Codec ID/Info : Picture based subtitle format used on BDs/HD-DVDs
Duration : 1 h 31 min
Bit rate : 30.1 kb/s
Count of elements : 1722
Stream size : 19.8 MiB (0%)
Title : Thai PGS Angsana LOW
Language : Thai
Default : No
Forced : No

Text #10
ID : 13
Format : PGS
Muxing mode : zlib
Codec ID : S_HDMV/PGS
Codec ID/Info : Picture based subtitle format used on BDs/HD-DVDs
Duration : 1 h 31 min
Bit rate : 29.8 kb/s
Count of elements : 1722
Stream size : 19.6 MiB (0%)
Title : Thai PGS Cordia
Language : Thai
Default : No
Forced : No

Text #11
ID : 14
Format : PGS
Muxing mode : zlib
Codec ID : S_HDMV/PGS
Codec ID/Info : Picture based subtitle format used on BDs/HD-DVDs
Duration : 1 h 31 min
Bit rate : 29.8 kb/s
Count of elements : 1722
Stream size : 19.6 MiB (0%)
Title : Thai PGS Cordia LOW
Language : Thai
Default : No
Forced : No

Text #12
ID : 15
Format : PGS
Muxing mode : zlib
Codec ID : S_HDMV/PGS
Codec ID/Info : Picture based subtitle format used on BDs/HD-DVDs
Duration : 1 h 31 min
Bit rate : 28.7 kb/s
Count of elements : 1722
Stream size : 18.9 MiB (0%)
Title : Thai PGS Freesia
Language : Thai
Default : No
Forced : No

Text #13
ID : 16
Format : PGS
Muxing mode : zlib
Codec ID : S_HDMV/PGS
Codec ID/Info : Picture based subtitle format used on BDs/HD-DVDs
Duration : 1 h 31 min
Bit rate : 28.7 kb/s
Count of elements : 1722
Stream size : 18.9 MiB (0%)
Title : Thai PGS Freesia LOW
Language : Thai
Default : No
Forced : No

Text #14
ID : 17
Format : PGS
Muxing mode : zlib
Codec ID : S_HDMV/PGS
Codec ID/Info : Picture based subtitle format used on BDs/HD-DVDs
Duration : 1 h 31 min
Bit rate : 26.2 kb/s
Count of elements : 1722
Stream size : 17.2 MiB (0%)
Title : Thai PGS Tohoma
Language : Thai
Default : No
Forced : No

Text #15
ID : 18
Format : PGS
Muxing mode : zlib
Codec ID : S_HDMV/PGS
Codec ID/Info : Picture based subtitle format used on BDs/HD-DVDs
Duration : 1 h 31 min
Bit rate : 26.2 kb/s
Count of elements : 1722
Stream size : 17.2 MiB (0%)
Title : Thai PGS Tohoma LOW
Language : Thai
Default : No
Forced : No

DOWNLOAD


PART01 |||| PART02 |||| PART03 |||| PART04 |||| PART05 |||| PART06

PART01 |||| PART02 |||| PART03 |||| PART04 |||| PART05 |||| PART06

PART01 |||| PART02 |||| PART03 |||| PART04 |||| PART05 |||| PART06

PART01 |||| PART02 |||| PART03 |||| PART04 |||| PART05 |||| PART06


Leave A Reply

Your email address will not be published.

%d bloggers like this: