[MINI Super-HQ] Knowing (2009) รหัสวินาศโลก [1080p] [พากย์ไทย 5.1 + เสียงอังกฤษ DTS] [บรรยายไทย + อังกฤษ] [เสียงไทย + ซับไทย] [OPENLOAD]

0

Knowing (2009) รหัสวินาศโลก

โหลดหนัง Knowing (2009) รหัสวินาศโลก

Knowing (2009) 2h 1min | Action, Drama, Mystery | 20 March 2009 (Canada) Summary: M.I.T. professor John Koestler links a mysterious list of numbers from a time capsule to past and future disasters and sets out to prevent the ultimate catastrophe.
Countries: USA, UK, AustraliaLanguages: English

เรื่องย่อ Knowing (2009) รหัสวินาศโลก

ใน ปี 1959 ณ.โรงเรียนประถมเปิดใหม่แห่งหนึ่งนักเรียนทุกคนได้ถูกมอบหมายให้วาดภาพอะไรก็ได้ ที่พวกเขาคิดว่าจะเกิดขึ้นในอนาคต ซึ่งทั้งหมดก็จะถูกใส่เอาไว้ในแค๊ปซูลเวลา และฝังเอาไว้เป็นเวลา 50 ปี อย่างไรก็ตาม ก็มีเด็กหญิงปริศนาคนหนึ่งได้เขียนตัวเลขมากมายที่ไม่มีความหมายบนกระดาษ ซึ่งเธอได้ยินมาจากเสียงกระซิบจากกลุ่มคนที่ไม่มีใครมองเห็นครึ่งศตวรรษต่อมา นักเรียนในยุคปัจจุบันก็ต่างได้รับสิ่งของที่อยู่ในแค๊ปซูลเวลา ซึ่งกระดาษใบนั้นก็ตกไปอยู่ในมือของคาเล็บ (แชนด์เลอร์ แคนเตอร์บิวรี่ย์) แต่ก็เป็น จอห์น (นิโคลัส เคจ) พ่อ ของ คาเล็บ และเป็นศาสตราจารย์ในด้านดาราศาสตร์ฟิสิกส์ ที่ได้ค้นพบสิ่งที่ซ่อนอยู่ในตัวเลข มันคือข้อความลับที่ได้ทำนายวันเวลาและจำนวนผู้เสียชีวิตในเหตุการณ์หายนะ ที่เกิดขึ้นในรอบ 50 ปีอย่างแม่นยำ เมื่อเขายิ่งสืบค้นลงไปในเรื่องราวที่ลี้ลับนี้มากเท่าไร จอห์น ก็รู้ว่ามันได้ทำนายหายนะใหญ่อีกสามครั้งที่กำลังจะเกิดขึ้นในไม่ช้า ซึ่งเหตุการณ์สุดท้ายนั้นก็อาจหมายถึงจุดจบของโลกใบนี้เลยทีเดียวความพยายามของ จอห์น ในการเตือนผู้มีอำนาจในการป้องการมหันตภัยถูกเพิกเฉยอย่างไม่ใยดี และเขาก็ยิ่งกลัวขึ้นเมื่อค้นพบว่า คาเล็บ อาจจะเกี่ยวข้องกับปริศนาชิ้นนี้ ด้วยความช่วยเหลือของ ไดอาน่า (โรส เบิร์น) และ แอ๊บบี้ (ลาร่า โรบินสัน) ผู้ซึ่งเป็นลูกสาวและหลานสาวของเด็กหญิงที่เขียนคำทำนายนี้ไว้ จอห์น ต้องเร่งมือแข่งกับเวลาในการ้องกันไม่ให้เกิดมหันตภัยสุดท้ายที่จะทำลายล้างโลกใบนี้

Complete name : [MINI Super-HQ]_Knowing.2009.1080p.BrRip.DTS.x264.One2loadup.com.mkv
Format : Matroska
Format version : Version 4
File size : 4.25 GiB
Duration : 2 h 1 min
Overall bit rate : 5 004 kb/s
Movie name : [MINI Super-HQ]_Knowing.2009.1080p.BrRip.DTS.x264.One2loadup.com
Encoded date : UTC 2015-05-23 05:44:22
Writing application : mkvmerge v7.8.0 (‘River Man’) 32bit built on Mar 27 2015 16:18:02
Writing library : libebml v1.3.1 + libmatroska v1.4.2
Cover : Yes
Attachments : cover_land.png / cover.png

Video
ID : 1
Format : AVC
Format/Info : Advanced Video Codec
Format profile : [email protected]
Format settings : CABAC / 5 Ref Frames
Format settings, CABAC : Yes
Format settings, ReFrames : 5 frames
Codec ID : V_MPEG4/ISO/AVC
Duration : 2 h 1 min
Bit rate : 3 910 kb/s
Width : 1 920 pixels
Height : 816 pixels
Display aspect ratio : 2.35:1
Frame rate mode : Constant
Frame rate : 23.976 (24000/1001) FPS
Color space : YUV
Chroma subsampling : 4:2:0
Bit depth : 8 bits
Scan type : Progressive
Bits/(Pixel*Frame) : 0.104
Stream size : 3.30 GiB (78%)
Title : [MINI Super-HQ]_Knowing.2009.1080p.BrRip.DTS.x264.One2loadup.com
Writing library : x264 core 146 r2538 121396c
Encoding settings : cabac=1 / ref=5 / deblock=1:-3:-3 / analyse=0x3:0x113 / me=umh / subme=11 / psy=1 / psy_rd=1.00:0.00 / mixed_ref=1 / me_range=64 / chroma_me=1 / trellis=2 / 8x8dct=1 / cqm=0 / deadzone=21,11 / fast_pskip=0 / chroma_qp_offset=-2 / threads=6 / lookahead_threads=1 / sliced_threads=0 / nr=0 / decimate=1 / interlaced=0 / bluray_compat=0 / constrained_intra=0 / bframes=5 / b_pyramid=2 / b_adapt=2 / b_bias=0 / direct=3 / weightb=1 / open_gop=0 / weightp=2 / keyint=250 / keyint_min=23 / scenecut=40 / intra_refresh=0 / rc_lookahead=100 / rc=2pass / mbtree=1 / bitrate=3910 / ratetol=1.0 / qcomp=0.60 / qpmin=0 / qpmax=69 / qpstep=4 / cplxblur=20.0 / qblur=0.5 / vbv_maxrate=99999 / vbv_bufsize=99999 / nal_hrd=none / filler=0 / ip_ratio=1.40 / aq=1:1.00
Language : English
Default : Yes
Forced : No

Audio #1
ID : 2
Format : AC-3
Format/Info : Audio Coding 3
Commercial name : Dolby Digital
Codec ID : A_AC3
Duration : 2 h 1 min
Bit rate mode : Constant
Bit rate : 256 kb/s
Channel(s) : 6 channels
Channel layout : L R C LFE Ls Rs
Sampling rate : 44.1 kHz
Frame rate : 28.711 FPS (1536 SPF)
Bit depth : 16 bits
Compression mode : Lossy
Stream size : 222 MiB (5%)
Title : AC3
Language : Thai
Service kind : Complete Main
Default : Yes
Forced : Yes

Audio #2
ID : 3
Format : DTS
Format/Info : Digital Theater Systems
Codec ID : A_DTS
Duration : 2 h 1 min
Bit rate mode : Constant
Bit rate : 755 kb/s
Channel(s) : 6 channels
Channel layout : C L R Ls Rs LFE
Sampling rate : 48.0 kHz
Frame rate : 93.750 FPS (512 SPF)
Bit depth : 24 bits
Compression mode : Lossy
Stream size : 656 MiB (15%)
Title : DTS
Language : English
Default : No
Forced : No

Text #1
ID : 4
Format : VobSub
Codec ID : S_VOBSUB
Codec ID/Info : Picture based subtitle format used on DVDs
Title : 1080P TSA
Language : Thai
Default : Yes
Forced : Yes

Text #2
ID : 5
Format : VobSub
Codec ID : S_VOBSUB
Codec ID/Info : Picture based subtitle format used on DVDs
Title : 1080P TSA
Language : Thai
Default : No
Forced : No

Text #3
ID : 6
Format : VobSub
Codec ID : S_VOBSUB
Codec ID/Info : Picture based subtitle format used on DVDs
Title : 1080P AS
Language : Thai
Default : No
Forced : No

Text #4
ID : 7
Format : VobSub
Codec ID : S_VOBSUB
Codec ID/Info : Picture based subtitle format used on DVDs
Title : 480P AS
Language : Thai
Default : No
Forced : No

Text #5
ID : 8
Format : VobSub
Codec ID : S_VOBSUB
Codec ID/Info : Picture based subtitle format used on DVDs
Title : DVD
Language : Thai
Default : No
Forced : No

Text #6
ID : 9
Format : VobSub
Codec ID : S_VOBSUB
Codec ID/Info : Picture based subtitle format used on DVDs
Title : DVD
Language : English
Default : No
Forced : No

Text #7
ID : 10
Format : UTF-8
Codec ID : S_TEXT/UTF8
Codec ID/Info : UTF-8 Plain Text
Title : SRT OCR
Language : Thai
Default : No
Forced : No

Text #8
ID : 11
Format : PGS
Codec ID : S_HDMV/PGS
Codec ID/Info : Picture based subtitle format used on BDs/HD-DVDs
Title : TSA
Language : Thai
Default : No
Forced : No

Text #9
ID : 12
Format : PGS
Codec ID : S_HDMV/PGS
Codec ID/Info : Picture based subtitle format used on BDs/HD-DVDs
Title : AS
Language : Thai
Default : No
Forced : No

DOWNLOAD


PART01 |||| PART02 |||| PART03 |||| PART04 |||| PART05

PART01 |||| PART02 |||| PART03 |||| PART04 |||| PART05

PART01 |||| PART02 |||| PART03 |||| PART04 |||| PART05

PART01 |||| PART02 |||| PART03 |||| PART04 |||| PART05


Leave A Reply

Your email address will not be published.

%d bloggers like this: