โหลดหนัง HD MINI-HD SUPER-HQ Full-HD 1080p VIP Master Zoom ซูม หนังใหม่ ออนไลน์ มาสเตอร์ ไทย จีน ฝรั่ง การ์ตูน

[MINI Super-HQ] King Naresuan 3 (2011) ตำนานสมเด็จพระนเรศวรมหาราช ภาค 3 ยุทธนาวี [1080p] [พากย์ไทย 5.1] [ไม่มีบรรยาย] [เสียงไทย] [OPENLOAD]

2

โหลดหนัง  King Naresuan 3 (2011) ตำนานสมเด็จพระนเรศวรมหาราช ภาค 3 ยุทธนาวี

เรื่องย่อ King Naresuan 3 (2011) ตำนานสมเด็จพระนเรศวรมหาราช ภาค 3 ยุทธนาวี

การประกาศเอกราชที่เมืองแครง ในปีพุทธศักราช 2127 ของ สมเด็จพระนเรศวรมหาราช ทำให้พระเจ้านันทบุเรงซึ่งติดอยู่ที่เมืองอังวะจำต้องส่งทัพพระยาพะสิมและ ทัพพระเจ้าเชียงใหม่เข้าประชิดกรุงศรีอยุธยาโดยทัพพระยาพะสิมยกเข้าทางด่าน เจดีย์สามองค์เลยล่วงเข้ามาถึงแดนสุพรรณบุรี ส่วนทัพพระเจ้าเชียงใหม่นรธาเมงสอ ยกลงมาทางเหนือตั้งค่ายที่บ้านสระเกศแขวงเมืองอ่างทอง ในระหว่างนั้นเจ้ากรุงละแวกได้ส่งสายลับชื่อ จีนจันตุ เข้ามาลอบสืบความเป็นไปในกรุงศรีอยุธยา แต่ถูกจับพิรุธได้จนต้องตีสำเภาหนีกลับกรุงละแวก สมเด็จพระนเรศวรมหาราชทรงนำทัพเรือออกตามจนเกิดยุทธนาวี แต่จีนจันตุหนีรอดไปได้ และเมื่อเจ้ากรุงละแวกได้ทราบพระปรีชาสามารถของสมเด็จพระนเรศวรมหาราช จึงเปลี่ยนพระทัยมาสานไมตรีกับกรุงศรีอยุธยาและได้ส่งพระศรีสุพรรณราชาธิราชผู้เป็นอนุชามาช่วยอยุธยาทำศึกหงสา ข้างสมเด็จพระนเรศวรมหาราชก็จัดเตรียมการรับศึกหงสาวดี ทรงเห็นว่ากำลังข้างอยุธยายังเป็นรองพม่ารามัญ จึงทรงปรับเปลี่ยนยุทธศาสตร์การรบเสียใหม่ โดยมิปล่อยให้ทัพพระยาพะสิมและนรธาแมงสอเจ้าเมืองเชียงใหม่เข้ามารวมกำลังผลึกล้อมร่วมกันตีกรุงศรีอยุธยา ครั้งนั้นทรงจัดทัพออกรับศึกในแขวงหัวเมืองแลด้วยทัพพม่ารามัญที่แยกสายเข้าตีเป็นสองทางเดินทัพช้าเร็วไม่เสมอกัน จึงทรงเทกำลังเข้ารับศึกพระยาพะสิมที่เมืองสุพรรณบุรีเบื้องประจิมทิศก่อน แล้วจึงเทกำลังเข้าตีพระเจ้าเชียงใหม่เบื้องอุดรทิศภายหลัง การทั้งหมดทั้งสิ้นต้องทำแข่งกับเวลา หากพลาดท่าแม้เพียงก้าวอโยธยาก็ไม่พ้นพินาศ

Complete name : [MINI Super-HQ]_3.King.Naresuan.2011.1080p.BrRip.AC3.x264.One2loadup.com.mkv
Format : Matroska
Format version : Version 4
File size : 3.06 GiB
Duration : 2 h 26 min
Overall bit rate : 3 003 kb/s
Movie name : [MINI Super-HQ]_3.King.Naresuan.2011.1080p.BrRip.AC3.x264.One2loadup.com
Encoded date : UTC 2014-05-12 00:09:13
Writing application : mkvmerge v6.8.0 (‘Theme for Great Cities’) 32bit built on Mar 2 2014 21:27:07
Writing library : libebml v1.3.0 + libmatroska v1.4.1

Video
ID : 1
Format : AVC
Format/Info : Advanced Video Codec
Format profile : [email protected]
Format settings : CABAC / 3 Ref Frames
Format settings, CABAC : Yes
Format settings, ReFrames : 3 frames
Codec ID : V_MPEG4/ISO/AVC
Duration : 2 h 26 min
Bit rate : 2 500 kb/s
Width : 1 920 pixels
Height : 1 036 pixels
Display aspect ratio : 1.85:1
Frame rate mode : Constant
Frame rate : 25.000 FPS
Color space : YUV
Chroma subsampling : 4:2:0
Bit depth : 8 bits
Scan type : Progressive
Bits/(Pixel*Frame) : 0.050
Stream size : 2.48 GiB (81%)
Title : [MINI Super-HQ]_3.King.Naresuan.2011.1080p.BrRip.AC3.x264.One2loadup.com
Writing library : x264 core 116 r2019M 9cc407d
Encoding settings : cabac=1 / ref=3 / deblock=1:0:0 / analyse=0x3:0x133 / me=hex / subme=7 / psy=1 / psy_rd=1.00:0.20 / mixed_ref=1 / me_range=16 / chroma_me=1 / trellis=1 / 8x8dct=1 / cqm=0 / deadzone=21,11 / fast_pskip=1 / chroma_qp_offset=-3 / threads=8 / sliced_threads=0 / nr=0 / decimate=1 / interlaced=0 / bluray_compat=0 / constrained_intra=0 / bframes=3 / b_pyramid=1 / b_adapt=2 / b_bias=0 / direct=3 / weightb=1 / open_gop=0 / weightp=2 / keyint=250 / keyint_min=25 / scenecut=40 / intra_refresh=0 / rc_lookahead=40 / rc=abr / mbtree=1 / bitrate=2500 / ratetol=1.0 / qcomp=0.60 / qpmin=10 / qpmax=51 / qpstep=4 / vbv_maxrate=31250 / vbv_bufsize=62500 / nal_hrd=none / ip_ratio=1.40 / aq=1:1.00
Language : Thai
Default : Yes
Forced : No

Audio #1
ID : 2
Format : AC-3
Format/Info : Audio Coding 3
Commercial name : Dolby Digital
Codec ID : A_AC3
Duration : 2 h 26 min
Bit rate mode : Constant
Bit rate : 384 kb/s
Channel(s) : 6 channels
Channel layout : L R C LFE Ls Rs
Sampling rate : 48.0 kHz
Frame rate : 31.250 FPS (1536 SPF)
Bit depth : 16 bits
Compression mode : Lossy
Stream size : 401 MiB (13%)
Title : TH 5.1
Language : Thai
Service kind : Complete Main
Default : Yes
Forced : No

Audio #2
ID : 3
Format : AC-3
Format/Info : Audio Coding 3
Commercial name : Dolby Digital
Codec ID : A_AC3
Duration : 2 h 26 min
Bit rate mode : Constant
Bit rate : 128 kb/s
Channel(s) : 2 channels
Channel layout : L R
Sampling rate : 48.0 kHz
Frame rate : 31.250 FPS (1536 SPF)
Bit depth : 16 bits
Compression mode : Lossy
Stream size : 134 MiB (4%)
Title : TH การสนทนาเบื้องหลังการถ่ายทำ
Language : Thai
Service kind : Complete Main
Default : No
Forced : No

DOWNLOAD


PART01 |||| PART02 |||| PART03 |||| PART04

PART01 |||| PART02 |||| PART03 |||| PART04

PART01 |||| PART02 |||| PART03 |||| PART04

PART01 |||| PART02 |||| PART03 |||| PART04


2 Comments
  1. ว้าวๆๆๆ says

    ขอหนัง The Transporter Trilogy หน่อยครับแอ๊ด

    1. Admin
      Admin says

      เพิ่มในคิวขอหนังให้เรียบร้อยฮ๊ะ

Leave A Reply

Your email address will not be published.

%d bloggers like this: