[MINI Super-HQ] JT LeRoy (2018) แซ่บ ลวงโลก [1080p] [พากย์ไทย 5.1 + เสียงอังกฤษ DTS] [บรรยายไทย + อังกฤษ] [เสียงไทย + ซับไทย] [OPENLOAD]

0

JT LeRoy (2018)

โหลดหนัง Jeremiah Terminator LeRoy (JT LeRoy) (2018) แซ่บ ลวงโลก

Jeremiah Terminator LeRoy (2018) 1h 48min | Biography, Drama | 12 August 2019 (UK) Summary: A young woman named Savannah Knoop spends six years pretending to be the celebrated author JT LeRoy, the made-up literary persona of her sister-in-law.
Countries: UK, Canada, USALanguages: English, French

เรื่องย่อ Jeremiah Terminator LeRoy (JT LeRoy) (2018) แซ่บ ลวงโลก

สร้างจากเรื่องจริงอันอื้อฉาวของวงการหนังสือในสหรัฐ อเมริกาเมื่อปี 2006JT LeRoy ได้ คริสเตน สจวร์ต กับ ลอรา เดิร์น มาประชันบทบาทกันในบทนำและกำกับ-เขียนบทโดยผู้กำกับหนังอินดี้ จัสติน เคลลี จาก King Cobra (2016) และ I Am Michael (2015) ลอรา อัลเบิร์ต (เดิร์น) แม่บ้านวัยกลางคนผู้รักสันโดษที่บังเอิญได้เขียนนิยายกึ่งอัตชีวประวัติเล่มหนึ่งว่าด้วยเด็กวัยรุ่นติดยาที่น่าสงสารซึ่งมีแม่เป็นโสเภณี โดยเธอปลอมเป็นเด็กหนุ่ม LGBT และใช้ชื่อปลอมที่คิดขึ้นมาในการเขียนแต่บังเอิญว่าหนังสือเกิดดังเปรี้ยงเธอจึงต้องพึ่ง ซาวานนาห์ นูป (สจวร์ต) น้องสาวของแฟนหนุ่มมารับหน้าเป็นตัวของเธอแทนเพราะดูแล้วมีภาพที่ตรงกับลักษณะที่เธอแอบอ้างมากกว่า เรื่องราววุ่นวายยิ่งขึ้น เมื่อต้องมีการสัมภาษณ์นิตยสารเดินสายประชาสัมพันธ์หนังสือ, ออกงานอีเวนต์ และมีค่ายหนังสนใจเอาหนังสือไปสร้างหนังตามมา การโกหกจึงยิ่งยุ่งเหยิงและนำไปสู่การค้นพบตัวเองว่าตัวของเรานั้นเป็นใครขณะที่ปลอมเป็นอีกคน!!!

Complete name : [MINI Super-HQ]_Jeremiah.Terminator.LeRoy.2018.1080p.BrRip.DTS.x264.One2loadup.com.mkv
Format : Matroska
Format version : Version 4
File size : 4.01 GiB
Duration : 1 h 48 min
Overall bit rate : 5 287 kb/s
Movie name : [MINI Super-HQ]_Jeremiah.Terminator.LeRoy.2018.1080p.BrRip.DTS.x264.One2loadup.com
Encoded date : UTC 2010-02-22 21:41:31
Writing application : mkvmerge v5.9.0 (‘On The Loose’) built on Dec 9 2012 15:37:01
Writing library : libebml v1.3.0 + libmatroska v1.4.0

Video
ID : 1
Format : AVC
Format/Info : Advanced Video Codec
Format profile : [email protected]
Format settings : CABAC / 4 Ref Frames
Format settings, CABAC : Yes
Format settings, ReFrames : 4 frames
Codec ID : V_MPEG4/ISO/AVC
Duration : 1 h 48 min
Bit rate : 3 849 kb/s
Width : 1 920 pixels
Height : 804 pixels
Display aspect ratio : 2.40:1
Frame rate mode : Constant
Frame rate : 23.976 (24000/1001) FPS
Color space : YUV
Chroma subsampling : 4:2:0
Bit depth : 8 bits
Scan type : Progressive
Bits/(Pixel*Frame) : 0.104
Stream size : 3.02 GiB (75%)
Title : [MINI Super-HQ]_Jeremiah.Terminator.LeRoy.2018.1080p.BrRip.DTS.x264.One2loadup.com
Writing library : x264 core 146 r2538 121396c
Encoding settings : cabac=1 / ref=5 / deblock=1:-3:-3 / analyse=0x3:0x133 / me=tesa / subme=11 / psy=1 / psy_rd=1.00:0.15 / mixed_ref=1 / me_range=48 / chroma_me=1 / trellis=2 / 8x8dct=1 / cqm=0 / deadzone=21,11 / fast_pskip=1 / chroma_qp_offset=-3 / threads=54 / lookahead_threads=4 / sliced_threads=0 / nr=0 / decimate=1 / interlaced=0 / bluray_compat=1 / constrained_intra=0 / bframes=3 / b_pyramid=1 / b_adapt=2 / b_bias=0 / direct=3 / weightb=1 / open_gop=0 / weightp=1 / keyint=250 / keyint_min=1 / scenecut=40 / intra_refresh=0 / rc_lookahead=60 / rc=2pass / mbtree=1 / bitrate=3849 / ratetol=1.0 / qcomp=0.60 / qpmin=0 / qpmax=69 / qpstep=4 / cplxblur=20.0 / qblur=0.5 / ip_ratio=1.40 / aq=1:1.30
Language : English
Default : Yes
Forced : No

Audio #1
ID : 2
Format : AC-3
Format/Info : Audio Coding 3
Commercial name : Dolby Digital
Codec ID : A_AC3
Duration : 1 h 48 min
Bit rate mode : Constant
Bit rate : 448 kb/s
Channel(s) : 6 channels
Channel layout : L R C LFE Ls Rs
Sampling rate : 48.0 kHz
Frame rate : 31.250 FPS (1536 SPF)
Bit depth : 16 bits
Compression mode : Lossy
Stream size : 348 MiB (8%)
Title : Thai DVD Master
Language : Thai
Service kind : Complete Main
Default : Yes
Forced : Yes

Audio #2
ID : 3
Format : DTS
Format/Info : Digital Theater Systems
Codec ID : A_DTS
Duration : 1 h 48 min
Bit rate mode : Constant
Bit rate : 755 kb/s
Channel(s) : 6 channels
Channel layout : C L R Ls Rs LFE
Sampling rate : 48.0 kHz
Frame rate : 93.750 FPS (512 SPF)
Bit depth : 24 bits
Compression mode : Lossy
Stream size : 586 MiB (14%)
Title : English DTS
Language : English
Default : No
Forced : No

Text #1
ID : 4
Format : VobSub
Codec ID : S_VOBSUB
Codec ID/Info : Picture based subtitle format used on DVDs
Title : Thai 480p From DVD Master
Language : Thai
Default : No
Forced : No

Text #2
ID : 5
Format : VobSub
Codec ID : S_VOBSUB
Codec ID/Info : Picture based subtitle format used on DVDs
Title : Thai 720p
Language : Thai
Default : No
Forced : No

Text #3
ID : 6
Format : VobSub
Codec ID : S_VOBSUB
Codec ID/Info : Picture based subtitle format used on DVDs
Title : Thai 1080p
Language : Thai
Default : Yes
Forced : Yes

Text #4
ID : 7
Format : VobSub
Codec ID : S_VOBSUB
Codec ID/Info : Picture based subtitle format used on DVDs
Title : Thai 1080p Yellow
Language : Thai
Default : No
Forced : No

Text #5
ID : 8
Format : VobSub
Codec ID : S_VOBSUB
Codec ID/Info : Picture based subtitle format used on DVDs
Title : Thai 1080p Out
Language : Thai
Default : No
Forced : No

Text #6
ID : 9
Format : VobSub
Codec ID : S_VOBSUB
Codec ID/Info : Picture based subtitle format used on DVDs
Title : Thai 1080p BIG
Language : Thai
Default : No
Forced : No

Text #7
ID : 10
Format : VobSub
Codec ID : S_VOBSUB
Codec ID/Info : Picture based subtitle format used on DVDs
Title : Thai 1080p Out [BIG]
Language : Thai
Default : No
Forced : No

Text #8
ID : 11
Format : PGS
Codec ID : S_HDMV/PGS
Codec ID/Info : Picture based subtitle format used on BDs/HD-DVDs
Title : Thai PGS
Language : Thai
Default : No
Forced : No

Text #9
ID : 12
Format : PGS
Codec ID : S_HDMV/PGS
Codec ID/Info : Picture based subtitle format used on BDs/HD-DVDs
Title : Thai PGS Yellow
Language : Thai
Default : No
Forced : No

Text #10
ID : 13
Format : PGS
Codec ID : S_HDMV/PGS
Codec ID/Info : Picture based subtitle format used on BDs/HD-DVDs
Title : Thai PGS Out
Language : Thai
Default : No
Forced : No

Text #11
ID : 14
Format : PGS
Codec ID : S_HDMV/PGS
Codec ID/Info : Picture based subtitle format used on BDs/HD-DVDs
Title : English
Language : English
Default : No
Forced : No

Menu
00:00:00.000 : en:Chapter 01
00:07:19.189 : en:Chapter 02
00:13:24.095 : en:Chapter 03
00:18:07.003 : en:Chapter 04
00:28:05.142 : en:Chapter 05
00:38:47.909 : en:Chapter 06
00:44:31.419 : en:Chapter 07
00:55:51.723 : en:Chapter 08
01:04:24.903 : en:Chapter 09
01:16:40.054 : en:Chapter 10
01:24:29.773 : en:Chapter 11
01:36:59.647 : en:Chapter 12

DOWNLOAD


PART01 |||| PART02 |||| PART03 |||| PART04

PART01 |||| PART02 |||| PART03 |||| PART04

PART01 |||| PART02 |||| PART03 |||| PART04

PART01 |||| PART02 |||| PART03 |||| PART04


Leave A Reply

Your email address will not be published.

%d bloggers like this: