[MINI Super-HQ] Il Ragazzo Invisibile (The Invisible Boy) (2014) อินวิซิเบิ้ล เด็กพลังล่องหน [1080p] [พากย์ไทย 2.0 + เสียงอิตาลี 5.1] [บรรยายไทย + อังกฤษ] [เสียงไทย + ซับไทย] [OPENLOAD]

0

โหลดหนัง Il Ragazzo Invisibile (The Invisible Boy) (2014) อินวิซิเบิ้ล เด็กพลังล่องหน

Il ragazzo invisibile (2014) 1h 40min | Action, Adventure, Comedy | 18 December 2014 (Italy) Summary: Michele is thirteen year old, shy, unpopular at school, and in love with Stella. After wearing a costume for a Halloween party, he finds out that he's invisible.
Countries: Italy, FranceLanguages: Italian

เรื่องย่อ Il Ragazzo Invisibile (The Invisible Boy) (2014) อินวิซิเบิ้ล เด็กพลังล่องหน

ภาพยนตร์ซุปเปอร์ฮีโร่ที่ทำรายได้อย่างถล่มทลายในประเทศอิตาลี เล่าเรื่องราวของมิเคเล่ เด็กหนุ่มวัย 13 ปี ที่ไม่มีใครสนใจ แถมยังโดนเพื่อนที่โรงเรียนแกล้งเป็นประจำ แต่แล้ววันหนึ่งเขาก็ได้ตื่นขึ้นมาแล้วค้นพบกับพลังวิเศษของตัวเองที่ไม่เคย รู้มาก่อน เขาล่องหนได้ แต่การที่เด็กน้อยได้ค้นพบพลังก็เหมือนได้เปิดเผยตัวกับคนที่คอยตามล่าเขาอยู่ มิเคเล่ จะสามารถใช้พลังวิเศษนี้ปกป้องตัวเอง และคนที่เขารักได้หรือไม่? แล้วคนที่กำลังตามล่าตัวของเขาคือใคร? ปริศนาของพลังล่องหนกำลังจะถูกเปิดเผยในไม่ช้า!!

Complete name : [MINI Super-HQ]_Il.Ragazzo.Invisibile.2014.1080p.BrRip.x264.DTS.One2loadup.com.mkv
Format : Matroska
Format version : Version 4
File size : 4.56 GiB
Duration : 1 h 41 min
Overall bit rate : 6 438 kb/s
Movie name : [MINI Super-HQ]_Il.Ragazzo.Invisibile.2014.1080p.BrRip.x264.DTS.One2loadup.com
Encoded date : UTC 2018-03-14 00:44:06
Writing application : mkvmerge v8.9.0 (‘Father Daughter’) 64bit
Writing library : libebml v1.3.3 + libmatroska v1.4.4

Video
ID : 1
Format : AVC
Format/Info : Advanced Video Codec
Format profile : [email protected]
Format settings : CABAC / 4 Ref Frames
Format settings, CABAC : Yes
Format settings, ReFrames : 4 frames
Codec ID : V_MPEG4/ISO/AVC
Duration : 1 h 41 min
Bit rate : 5 723 kb/s
Width : 1 920 pixels
Height : 800 pixels
Display aspect ratio : 2.40:1
Frame rate mode : Constant
Frame rate : 23.976 (24000/1001) FPS
Color space : YUV
Chroma subsampling : 4:2:0
Bit depth : 8 bits
Scan type : Progressive
Bits/(Pixel*Frame) : 0.155
Stream size : 4.05 GiB (89%)
Title : [MINI Super-HQ]_Il.Ragazzo.Invisibile.2014.1080p.BrRip.x264.DTS.One2loadup.com
Writing library : x264 core 148 r2665 a01e339
Encoding settings : cabac=1 / ref=4 / deblock=1:-2:-1 / analyse=0x3:0x133 / me=umh / subme=11 / psy=1 / psy_rd=1.00:0.15 / mixed_ref=1 / me_range=32 / chroma_me=1 / trellis=2 / 8x8dct=1 / cqm=0 / deadzone=21,11 / fast_pskip=0 / chroma_qp_offset=-3 / threads=12 / lookahead_threads=1 / sliced_threads=0 / nr=0 / decimate=1 / interlaced=0 / bluray_compat=0 / constrained_intra=0 / bframes=5 / b_pyramid=2 / b_adapt=2 / b_bias=0 / direct=1 / weightb=1 / open_gop=0 / weightp=2 / keyint=240 / keyint_min=23 / scenecut=40 / intra_refresh=0 / rc_lookahead=60 / rc=2pass / mbtree=1 / bitrate=5723 / ratetol=1.0 / qcomp=0.60 / qpmin=0 / qpmax=69 / qpstep=4 / cplxblur=20.0 / qblur=0.5 / vbv_maxrate=50000 / vbv_bufsize=50000 / nal_hrd=none / filler=0 / ip_ratio=1.40 / aq=1:1.00
Language : Italian
Default : Yes
Forced : No

Audio #1
ID : 2
Format : AAC LC
Format/Info : Advanced Audio Codec Low Complexity
Codec ID : A_AAC-2
Duration : 1 h 41 min
Bit rate : 192 kb/s
Channel(s) : 2 channels
Channel layout : L R
Sampling rate : 44.1 kHz
Frame rate : 43.066 FPS (1024 SPF)
Compression mode : Lossy
Stream size : 139 MiB (3%)
Title : Thai AAC
Language : Thai
Default : Yes
Forced : No

Audio #2
ID : 3
Format : AC-3
Format/Info : Audio Coding 3
Commercial name : Dolby Digital
Codec ID : A_AC3
Duration : 1 h 41 min
Bit rate mode : Constant
Bit rate : 448 kb/s
Channel(s) : 6 channels
Channel layout : L R C LFE Ls Rs
Sampling rate : 48.0 kHz
Frame rate : 31.250 FPS (1536 SPF)
Bit depth : 16 bits
Compression mode : Lossy
Stream size : 325 MiB (7%)
Title : Italian AC3 5.1
Language : Italian
Service kind : Complete Main
Default : No
Forced : No

Text #1
ID : 4
Format : UTF-8
Codec ID : S_TEXT/UTF8
Codec ID/Info : UTF-8 Plain Text
Duration : 1 h 34 min
Bit rate : 33 b/s
Count of elements : 812
Stream size : 23.0 KiB (0%)
Title : SRT
Language : English
Default : Yes
Forced : No

Text #2
ID : 5
Format : VobSub
Muxing mode : zlib
Codec ID : S_VOBSUB
Codec ID/Info : Picture based subtitle format used on DVDs
Duration : 1 h 34 min
Bit rate : 3 415 b/s
Count of elements : 812
Stream size : 2.30 MiB (0%)
Title : VOB
Language : English
Default : No
Forced : No

Text #3
ID : 6
Format : VobSub
Muxing mode : zlib
Codec ID : S_VOBSUB
Codec ID/Info : Picture based subtitle format used on DVDs
Duration : 1 h 34 min
Bit rate : 3 755 b/s
Count of elements : 814
Stream size : 2.53 MiB (0%)
Title : VOB AS UNDER
Language : Thai
Default : No
Forced : No

Text #4
ID : 7
Format : VobSub
Muxing mode : zlib
Codec ID : S_VOBSUB
Codec ID/Info : Picture based subtitle format used on DVDs
Duration : 1 h 34 min
Bit rate : 3 598 b/s
Count of elements : 814
Stream size : 2.42 MiB (0%)
Title : VOB DIL UNDER
Language : Thai
Default : No
Forced : No

Text #5
ID : 8
Format : VobSub
Muxing mode : zlib
Codec ID : S_VOBSUB
Codec ID/Info : Picture based subtitle format used on DVDs
Duration : 1 h 34 min
Bit rate : 3 755 b/s
Count of elements : 814
Stream size : 2.53 MiB (0%)
Title : VOB AS
Language : Thai
Default : No
Forced : No

Text #6
ID : 9
Format : VobSub
Muxing mode : zlib
Codec ID : S_VOBSUB
Codec ID/Info : Picture based subtitle format used on DVDs
Duration : 1 h 34 min
Bit rate : 3 598 b/s
Count of elements : 814
Stream size : 2.42 MiB (0%)
Title : VOB DIL
Language : Thai
Default : No
Forced : No

Text #7
ID : 10
Format : PGS
Muxing mode : zlib
Codec ID : S_HDMV/PGS
Codec ID/Info : Picture based subtitle format used on BDs/HD-DVDs
Duration : 1 h 34 min
Bit rate : 10.7 kb/s
Count of elements : 1628
Stream size : 7.18 MiB (0%)
Title : PGS AS YELLOW
Language : Thai
Default : No
Forced : No

Text #8
ID : 11
Format : PGS
Muxing mode : zlib
Codec ID : S_HDMV/PGS
Codec ID/Info : Picture based subtitle format used on BDs/HD-DVDs
Duration : 1 h 34 min
Bit rate : 10.3 kb/s
Count of elements : 1628
Stream size : 6.94 MiB (0%)
Title : PGS DIL YELLOW
Language : Thai
Default : No
Forced : No

Text #9
ID : 12
Format : PGS
Muxing mode : zlib
Codec ID : S_HDMV/PGS
Codec ID/Info : Picture based subtitle format used on BDs/HD-DVDs
Duration : 1 h 34 min
Bit rate : 10.5 kb/s
Count of elements : 1628
Stream size : 7.08 MiB (0%)
Title : PGS AS UNDER
Language : Thai
Default : No
Forced : No

Text #10
ID : 13
Format : PGS
Muxing mode : zlib
Codec ID : S_HDMV/PGS
Codec ID/Info : Picture based subtitle format used on BDs/HD-DVDs
Duration : 1 h 34 min
Bit rate : 10.2 kb/s
Count of elements : 1628
Stream size : 6.83 MiB (0%)
Title : PGS DIL UNDER
Language : Thai
Default : No
Forced : No

Text #11
ID : 14
Format : PGS
Muxing mode : zlib
Codec ID : S_HDMV/PGS
Codec ID/Info : Picture based subtitle format used on BDs/HD-DVDs
Duration : 1 h 34 min
Bit rate : 10.5 kb/s
Count of elements : 1628
Stream size : 7.08 MiB (0%)
Title : PGS AS
Language : Thai
Default : No
Forced : No

Text #12
ID : 15
Format : PGS
Muxing mode : zlib
Codec ID : S_HDMV/PGS
Codec ID/Info : Picture based subtitle format used on BDs/HD-DVDs
Duration : 1 h 34 min
Bit rate : 10.2 kb/s
Count of elements : 1628
Stream size : 6.83 MiB (0%)
Title : PGS DIL
Language : Thai
Default : No
Forced : No

Menu
00:00:00.000 : en:00:00:00.000
00:12:31.960 : en:00:12:31.960
00:17:52.530 : en:00:17:52.530
00:26:59.910 : en:00:26:59.910
00:32:13.807 : en:00:32:13.807
00:38:44.322 : en:00:38:44.322
00:44:55.443 : en:00:44:55.443
00:58:33.885 : en:00:58:33.885
01:06:17.307 : en:01:06:17.307
01:16:32.922 : en:01:16:32.922
01:23:57.658 : en:01:23:57.658
01:32:55.528 : en:01:32:55.528

DOWNLOAD


PART01 |||| PART02 |||| PART03 |||| PART04 |||| PART05

PART01 |||| PART02 |||| PART03 |||| PART04 |||| PART05

PART01 |||| PART02 |||| PART03 |||| PART04 |||| PART05

PART01 |||| PART02 |||| PART03 |||| PART04 |||| PART05


Leave A Reply

Your email address will not be published.

%d bloggers like this: