โหลดหนัง HD MINI-HD SUPER-HQ Full-HD 1080p VIP Master Zoom ซูม หนังใหม่ ออนไลน์ มาสเตอร์ ไทย จีน ฝรั่ง การ์ตูน

[MINI Super-HQ] How to talk to Girls at Parties (2017) ฮาว ทู ทอล์ค ทู เกิร์ลส์ ปาร์ตี้ [1080p] [พากย์ไทย 5.1 + เสียงอังกฤษ DTS] [บรรยายไทย + อังกฤษ] [เสียงไทย + ซับไทย] [OPENLOAD]

โหลดหนัง  How to talk to Girls at Parties (2017) ฮาว ทู ทอล์ค ทู เกิร์ลส์ ปาร์ตี้

เรื่องย่อ How to talk to Girls at Parties (2017) ฮาว ทู ทอล์ค ทู เกิร์ลส์ ปาร์ตี้

หนังดัดแปลงจากเรื่องสั้นของ นีล ไกแมน, How to Talk to Girls at Parties เรื่องสั้นนี้ได้ตีพิมพ์ไปเมื่อปี 2006 ในชื่อ Fraglie Things ซึ่งเป็นบทกวีที่ประพันธ์โดยไกแมน นี่เป็นเรื่องราวความรักที่ไม่เหมือนใคร How to Talk to Girls at Parties จะเล่าเรื่องของ เอ็นน์, พังค์ร็อคเกอร์ วัยรุ่นสุดขี้อาย ที่มีชีวิตอยู่ในช่วงปี 1970 อาศัยอยู่แถบชานเมืองลอนดอนและเพื่อนสนิทของคนของเธอ, วิคและจอห์น คืนหนึ่งที่พวกเขากำลังสนุกอยู่ในปาร์ตี้ที่ซึ่งได้พ บกับกลุ่มคนที่แสนจะน่าสนใจ เริ่มแรกพวกเธอคิดว่านี่เป็นกลุ่มของลัทธิประหลาดก่อนจะได้รู้ว่าแท้จริงแล้วกลุ่มคนเหล่านั้นเป็นมนุษย์ต่างดาว ที่วางแผนอะไรบางอย่างอยู่ แต่นั่นก็ไม่สามารถห้ามเอ็นน์ ให้ตกหลุมรัก แซน หนึ่งในสมาชิกของกลุ่มประหลาดนั้นได้นี่เป็นเรื่องราวความรักสุดโรแมนติกที่ฉาบหน้าด้วยการปะทะกันระหว่างความเป็นพังค์และเอเลียน ซึ่งจะทดสอบมิตรภาพ, ครอบครัว และรักแท้ของพวกเขา!!!

Complete name : [MINI Super-HQ]_How.to.Talk.to.Girls.at.Parties.2017.1080p.BrRip.DTS.x264.One2loadup.com.mkv
Format : Matroska
Format version : Version 4
File size : 3.89 GiB
Duration : 1 h 42 min
Overall bit rate : 5 429 kb/s
Movie name : [MINI Super-HQ]_How.to.Talk.to.Girls.at.Parties.2017.1080p.BrRip.DTS.x264.One2loadup.com
Encoded date : UTC 2010-02-22 21:41:31
Writing application : mkvmerge v5.9.0 (‘On The Loose’) built on Dec 9 2012 15:37:01
Writing library : libebml v1.3.0 + libmatroska v1.4.0

Video
ID : 1
Format : AVC
Format/Info : Advanced Video Codec
Format profile : [email protected]
Format settings : CABAC / 4 Ref Frames
Format settings, CABAC : Yes
Format settings, ReFrames : 4 frames
Codec ID : V_MPEG4/ISO/AVC
Duration : 1 h 42 min
Bit rate : 4 114 kb/s
Width : 1 920 pixels
Height : 1 036 pixels
Display aspect ratio : 1.85:1
Frame rate mode : Constant
Frame rate : 23.976 (24000/1001) FPS
Color space : YUV
Chroma subsampling : 4:2:0
Bit depth : 8 bits
Scan type : Progressive
Bits/(Pixel*Frame) : 0.086
Stream size : 2.95 GiB (76%)
Title : [MINI Super-HQ]_How.to.Talk.to.Girls.at.Parties.2017.1080p.BrRip.DTS.x264.One2loadup.com
Writing library : x264 core 130 r2273 b3065e6
Encoding settings : cabac=1 / ref=3 / deblock=1:0:0 / analyse=0x3:0x113 / me=umh / subme=11 / psy=1 / psy_rd=1.00:0.00 / mixed_ref=1 / me_range=48 / chroma_me=1 / trellis=2 / 8x8dct=1 / cqm=0 / deadzone=21,11 / fast_pskip=1 / chroma_qp_offset=-2 / threads=10 / lookahead_threads=1 / sliced_threads=0 / nr=0 / decimate=1 / interlaced=0 / bluray_compat=0 / constrained_intra=0 / bframes=3 / b_pyramid=2 / b_adapt=1 / b_bias=0 / direct=1 / weightb=1 / open_gop=0 / weightp=2 / keyint=240 / keyint_min=24 / scenecut=40 / intra_refresh=0 / rc_lookahead=40 / rc=2pass / mbtree=1 / bitrate=4114 / ratetol=1.0 / qcomp=0.60 / qpmin=0 / qpmax=69 / qpstep=4 / cplxblur=20.0 / qblur=0.5 / ip_ratio=1.40 / aq=1:1.00
Language : English
Default : Yes
Forced : No
Color range : Limited
Color primaries : BT.709
Transfer characteristics : BT.709
Matrix coefficients : BT.709

Audio #1
ID : 2
Format : AC-3
Format/Info : Audio Coding 3
Commercial name : Dolby Digital
Codec ID : A_AC3
Duration : 1 h 42 min
Bit rate mode : Constant
Bit rate : 448 kb/s
Channel(s) : 6 channels
Channel layout : L R C LFE Ls Rs
Sampling rate : 48.0 kHz
Frame rate : 31.250 FPS (1536 SPF)
Bit depth : 16 bits
Compression mode : Lossy
Stream size : 328 MiB (8%)
Title : Thai DVD Master
Language : Thai
Service kind : Complete Main
Default : Yes
Forced : Yes

Audio #2
ID : 3
Format : DTS
Format/Info : Digital Theater Systems
Codec ID : A_DTS
Duration : 1 h 42 min
Bit rate mode : Constant
Bit rate : 755 kb/s
Channel(s) : 6 channels
Channel layout : C L R Ls Rs LFE
Sampling rate : 48.0 kHz
Frame rate : 93.750 FPS (512 SPF)
Bit depth : 24 bits
Compression mode : Lossy
Stream size : 553 MiB (14%)
Title : English DTS
Language : English
Default : No
Forced : No

Text #1
ID : 4
Format : VobSub
Codec ID : S_VOBSUB
Codec ID/Info : Picture based subtitle format used on DVDs
Title : Thai 480p From DVD Master
Language : Thai
Default : No
Forced : No

Text #2
ID : 5
Format : VobSub
Codec ID : S_VOBSUB
Codec ID/Info : Picture based subtitle format used on DVDs
Title : Thai 720p
Language : Thai
Default : No
Forced : No

Text #3
ID : 6
Format : VobSub
Codec ID : S_VOBSUB
Codec ID/Info : Picture based subtitle format used on DVDs
Title : Thai 1080p
Language : Thai
Default : Yes
Forced : Yes

Text #4
ID : 7
Format : VobSub
Codec ID : S_VOBSUB
Codec ID/Info : Picture based subtitle format used on DVDs
Title : Thai 1080p Yellow
Language : Thai
Default : No
Forced : No

Text #5
ID : 8
Format : VobSub
Codec ID : S_VOBSUB
Codec ID/Info : Picture based subtitle format used on DVDs
Title : Thai 1080p BIG
Language : Thai
Default : No
Forced : No

Text #6
ID : 9
Format : PGS
Codec ID : S_HDMV/PGS
Codec ID/Info : Picture based subtitle format used on BDs/HD-DVDs
Title : Thai PGS
Language : Thai
Default : No
Forced : No

Text #7
ID : 10
Format : PGS
Codec ID : S_HDMV/PGS
Codec ID/Info : Picture based subtitle format used on BDs/HD-DVDs
Title : Thai PGS Yellow
Language : Thai
Default : No
Forced : No

Text #8
ID : 11
Format : PGS
Codec ID : S_HDMV/PGS
Codec ID/Info : Picture based subtitle format used on BDs/HD-DVDs
Title : English
Language : English
Default : No
Forced : No

Menu
00:00:00.000 : en:Chapter 1
00:09:37.077 : en:Chapter 2
00:16:37.205 : en:Chapter 3
00:24:44.650 : en:Chapter 4
00:32:50.802 : en:Chapter 5
00:41:36.244 : en:Chapter 6
00:49:55.743 : en:Chapter 7
00:59:40.243 : en:Chapter 8
01:08:32.859 : en:Chapter 9
01:15:41.245 : en:Chapter 10
01:22:48.839 : en:Chapter 11
01:33:20.136 : en:Chapter 12

DOWNLOAD


PART01 |||| PART02 |||| PART03 |||| PART04

PART01 |||| PART02 |||| PART03 |||| PART04

PART01 |||| PART02 |||| PART03 |||| PART04

PART01 |||| PART02 |||| PART03 |||| PART04


Leave A Reply

Your email address will not be published.

%d bloggers like this: