[MINI Super-HQ] Happy Death Day 2U (2019) สุขสันต์วันตาย 2U [1080p] [พากย์ไทย DTS + เสียงอังกฤษ DTS] [บรรยายไทย + อังกฤษ] [เสียงไทย + ซับไทย] [OPENLOAD]

0

Happy Death Day 2U (2019)

โหลดหนัง Happy Death Day 2U (2019) สุขสันต์วันตาย 2U

Happy Death Day 2U (2019) 1h 40min | Drama, Horror, Mystery | 14 February 2019 (Netherlands) Summary: Tree Gelbman discovers that dying over and over was surprisingly easier than the dangers that lie ahead.
Countries: USA, JapanLanguages: English, French

เรื่องย่อ Happy Death Day 2U (2019) สุขสันต์วันตาย 2U

เจสสิการอธ กลับมารับบทนำใน Happy Death Day 2 U ผลงานของบลัมเฮาส์ สตูดิโอผู้สร้าง Split, Get Out และ The Purge จากภาพยนตร์สุดเซอร์ไพรส์ในปี 2017 กลับมาคราวนี้ เธอจะมาพร้อมกับเรื่องราวหักมุมและความฮาเมื่อเธอพบกว่าการตายแบบวนลูปท่าทางจะง่ายกว่าการเผชิญอันตรายที่อยู่เบื้องหน้า!!!

Complete name : [MINI Super-HQ]_Happy.Death.Day.2u.2019.1080p.BrRip.DTS.x264.One2loadup.com.mkv
Format : Matroska
Format version : Version 4
File size : 4.20 GiB
Duration : 1 h 39 min
Overall bit rate : 6 010 kb/s
Movie name : [MINI Super-HQ]_Happy.Death.Day.2u.2019.1080p.BrRip.DTS.x264.One2loadup.com
Encoded date : UTC 2019-06-15 06:49:55
Writing application : mkvmerge v9.8.0 (‘Kuglblids’) 64bit
Writing library : libebml v1.3.4 + libmatroska v1.4.5

Video
ID : 1
Format : AVC
Format/Info : Advanced Video Codec
Format profile : [email protected]
Format settings : CABAC / 4 Ref Frames
Format settings, CABAC : Yes
Format settings, ReFrames : 4 frames
Codec ID : V_MPEG4/ISO/AVC
Duration : 1 h 39 min
Bit rate : 4 303 kb/s
Width : 1 920 pixels
Height : 804 pixels
Display aspect ratio : 2.40:1
Frame rate mode : Constant
Frame rate : 23.976 (24000/1001) FPS
Color space : YUV
Chroma subsampling : 4:2:0
Bit depth : 8 bits
Scan type : Progressive
Bits/(Pixel*Frame) : 0.116
Stream size : 3.00 GiB (72%)
Title : [MINI Super-HQ]_Happy.Death.Day.2u.2019.1080p.BrRip.DTS.x264.One2loadup.com
Writing library : x264 core 130 r2273 b3065e6
Encoding settings : cabac=1 / ref=3 / deblock=1:0:0 / analyse=0x3:0x113 / me=umh / subme=11 / psy=1 / psy_rd=1.00:0.00 / mixed_ref=1 / me_range=48 / chroma_me=1 / trellis=2 / 8x8dct=1 / cqm=0 / deadzone=21,11 / fast_pskip=1 / chroma_qp_offset=-2 / threads=24 / lookahead_threads=2 / sliced_threads=0 / nr=0 / decimate=1 / interlaced=0 / bluray_compat=0 / constrained_intra=0 / bframes=3 / b_pyramid=2 / b_adapt=2 / b_bias=0 / direct=1 / weightb=1 / open_gop=0 / weightp=2 / keyint=240 / keyint_min=24 / scenecut=40 / intra_refresh=0 / rc_lookahead=40 / rc=2pass / mbtree=1 / bitrate=4303 / ratetol=1.0 / qcomp=0.60 / qpmin=0 / qpmax=69 / qpstep=4 / cplxblur=20.0 / qblur=0.5 / ip_ratio=1.40 / aq=1:1.00
Language : English
Default : Yes
Forced : No
Color range : Limited
Color primaries : BT.709
Transfer characteristics : BT.709
Matrix coefficients : BT.709

Audio #1
ID : 2
Format : DTS
Format/Info : Digital Theater Systems
Codec ID : A_DTS
Duration : 1 h 39 min
Bit rate mode : Constant
Bit rate : 768 kb/s
Channel(s) : 6 channels
Channel layout : C L R Ls Rs LFE
Sampling rate : 48.0 kHz
Frame rate : 93.750 FPS (512 SPF)
Bit depth : 24 bits
Compression mode : Lossy
Stream size : 549 MiB (13%)
Title : Thai BluRay Master
Language : Thai
Default : Yes
Forced : Yes

Audio #2
ID : 3
Format : DTS
Format/Info : Digital Theater Systems
Codec ID : A_DTS
Duration : 1 h 39 min
Bit rate mode : Constant
Bit rate : 755 kb/s
Channel(s) : 6 channels
Channel layout : C L R Ls Rs LFE
Sampling rate : 48.0 kHz
Frame rate : 93.750 FPS (512 SPF)
Bit depth : 24 bits
Compression mode : Lossy
Stream size : 539 MiB (13%)
Title : English DTS
Language : English
Default : No
Forced : No

Text #1
ID : 4
Format : VobSub
Codec ID : S_VOBSUB
Codec ID/Info : Picture based subtitle format used on DVDs
Duration : 1 h 38 min
Bit rate : 3 731 b/s
Count of elements : 1222
Stream size : 2.63 MiB (0%)
Title : Thai 480p
Language : Thai
Default : No
Forced : No

Text #2
ID : 5
Format : VobSub
Codec ID : S_VOBSUB
Codec ID/Info : Picture based subtitle format used on DVDs
Duration : 1 h 39 min
Bit rate : 4 318 b/s
Count of elements : 1222
Stream size : 3.08 MiB (0%)
Title : Thai 720p
Language : Thai
Default : No
Forced : No

Text #3
ID : 6
Format : VobSub
Codec ID : S_VOBSUB
Codec ID/Info : Picture based subtitle format used on DVDs
Duration : 1 h 39 min
Bit rate : 8 051 b/s
Count of elements : 1222
Stream size : 5.75 MiB (0%)
Title : Thai 1080p
Language : Thai
Default : Yes
Forced : Yes

Text #4
ID : 7
Format : VobSub
Codec ID : S_VOBSUB
Codec ID/Info : Picture based subtitle format used on DVDs
Duration : 1 h 39 min
Bit rate : 8 038 b/s
Count of elements : 1222
Stream size : 5.74 MiB (0%)
Title : Thai 1080p Yellow
Language : Thai
Default : No
Forced : No

Text #5
ID : 8
Format : VobSub
Codec ID : S_VOBSUB
Codec ID/Info : Picture based subtitle format used on DVDs
Duration : 1 h 39 min
Bit rate : 10.9 kb/s
Count of elements : 1222
Stream size : 7.80 MiB (0%)
Title : Thai 1080p BIG
Language : Thai
Default : No
Forced : No

Text #6
ID : 9
Format : VobSub
Codec ID : S_VOBSUB
Codec ID/Info : Picture based subtitle format used on DVDs
Duration : 1 h 39 min
Bit rate : 8 089 b/s
Count of elements : 1222
Stream size : 5.78 MiB (0%)
Title : Thai 1080p Out
Language : Thai
Default : No
Forced : No

Text #7
ID : 10
Format : VobSub
Codec ID : S_VOBSUB
Codec ID/Info : Picture based subtitle format used on DVDs
Duration : 1 h 39 min
Bit rate : 11.0 kb/s
Count of elements : 1222
Stream size : 7.86 MiB (0%)
Title : Thai 1080p Out [BIG]
Language : Thai
Default : No
Forced : No

Text #8
ID : 11
Format : PGS
Codec ID : S_HDMV/PGS
Codec ID/Info : Picture based subtitle format used on BDs/HD-DVDs
Duration : 1 h 38 min
Bit rate : 24.4 kb/s
Count of elements : 2444
Stream size : 17.2 MiB (0%)
Title : Thai BluRay Master
Language : Thai
Default : No
Forced : No

Text #9
ID : 12
Format : PGS
Codec ID : S_HDMV/PGS
Codec ID/Info : Picture based subtitle format used on BDs/HD-DVDs
Duration : 1 h 39 min
Bit rate : 32.6 kb/s
Count of elements : 2452
Stream size : 23.3 MiB (1%)
Title : Thai PGS
Language : Thai
Default : No
Forced : No

Text #10
ID : 13
Format : PGS
Codec ID : S_HDMV/PGS
Codec ID/Info : Picture based subtitle format used on BDs/HD-DVDs
Duration : 1 h 39 min
Bit rate : 32.7 kb/s
Count of elements : 2452
Stream size : 23.4 MiB (1%)
Title : Thai PGS Yellow
Language : Thai
Default : No
Forced : No

Text #11
ID : 14
Format : PGS
Codec ID : S_HDMV/PGS
Codec ID/Info : Picture based subtitle format used on BDs/HD-DVDs
Duration : 1 h 39 min
Bit rate : 33.1 kb/s
Count of elements : 2452
Stream size : 23.6 MiB (1%)
Title : Thai PGS Out
Language : Thai
Default : No
Forced : No

Text #12
ID : 15
Format : VobSub
Codec ID : S_VOBSUB
Codec ID/Info : Picture based subtitle format used on DVDs
Duration : 1 h 34 min
Bit rate : 5 821 b/s
Count of elements : 1594
Stream size : 3.93 MiB (0%)
Title : English
Language : English
Default : No
Forced : No

Menu
00:00:00.000 : en:Chapter 1
00:07:42.253 : en:Chapter 2
00:16:01.085 : en:Chapter 3
00:21:16.066 : en:Chapter 4
00:24:21.668 : en:Chapter 5
00:28:44.890 : en:Chapter 6
00:32:34.661 : en:Chapter 7
00:37:15.817 : en:Chapter 8
00:42:02.979 : en:Chapter 9
00:45:35.107 : en:Chapter 10
00:48:37.665 : en:Chapter 11
00:54:27.347 : en:Chapter 12
01:00:36.341 : en:Chapter 13
01:06:24.314 : en:Chapter 14
01:13:19.520 : en:Chapter 15
01:17:47.079 : en:Chapter 16
01:21:31.762 : en:Chapter 17
01:27:36.084 : en:Chapter 18
01:33:02.994 : en:Chapter 19
01:35:05.742 : en:Chapter 20

 

DOWNLOAD


PART01 |||| PART02 |||| PART03 |||| PART04 |||| PART05

PART01 |||| PART02 |||| PART03 |||| PART04 |||| PART05

PART01 |||| PART02 |||| PART03 |||| PART04 |||| PART05

PART01 |||| PART02 |||| PART03 |||| PART04 |||| PART05


Leave A Reply

Your email address will not be published.

%d bloggers like this: