[MINI Super-HQ] Fast & Furious: Hobbs & Shaw (2019) เร็ว…แรงทะลุนรก ฮ็อบส์ & ชอว์ [Edit] [1080p] [พากย์ไทย 5.1 + เสียงอังกฤษ DTS] [บรรยายไทย + อังกฤษ] [เสียงไทย + ซับไทย] [PANDAFILE]

6

โหลดหนัง Fast & Furious: Hobbs & Shaw (2019) เร็ว…แรงทะลุนรก ฮ็อบส์ & ชอว์

Fast & Furious: Hobbs & Shaw (2019) 2h 17min | Action, Adventure | 1 August 2019 (Germany) Summary: Lawman Luke Hobbs and outcast Deckard Shaw form an unlikely alliance when a cyber-genetically enhanced villain threatens the future of humanity.
Countries: USALanguages: English, Samoan, Russian

เรื่องย่อ Fast & Furious: Hobbs & Shaw (2019) เร็ว…แรงทะลุนรก ฮ็อบส์ & ชอว์

**แก้ไขเสียง

นับตั้งแต่ที่ ฮ็อบส์ เจ้าหน้าที่ผู้รักษากฎหมายเจ้าของร่างล่ำบึ้ก (จอห์นสัน) ผู้จงรักภักดีต่อองค์กรหน่วยรักษาความปลอดภัยทางการท ูตแห่งอเมริกาและชอว์ (สเตแธม) ชายนอกกฎหมายอดีตเจ้าหน้าที่ทหารชั้นสูงของอังกฤษได้เผชิญหน้ากันเป็นครั้งแรกใน Fast & Furious 7 ในปี 2015 ทั้งคู่ก็ได้ปะทะกันทั้งด้วยคารมและหมัดด้วยความมุ่ง หมายที่จะโค่นอีกฝ่ายให้ได้แต่เมื่อบริกซ์ตัน (ไอดริส เอลบา) ผู้ชื่นชอบในลัทธิอนาธิปไตย และได้รับการปรับแต่งทางพันธุกรรมให้มีความสามารถสูงขึ้น และมีอำนาจควบคุมภัยคุกคามร้ายกาจทางชีวะที่อาจเปลี่ยนแปลงชีวิตของมนุษยชาติไปตลอดกาล และมีชัยเหนือเจ้าหน้าที่เอ็มไอซิกส์ผู้ชาญฉลาดและปราศจากความกลัว (วาเนสซา เคอร์บี้จาก The Crown) ผู้บังเอิญเป็นน้องสาวของชอว์ ศัตรูคู่อาฆาตทั้งสองคนนี้ จึงจำเป็นต้องจับมือกันเพื่อโค่นล้มคนเพียงคนเดียวที ่อาจจะร้ายกาจยิ่งกว่าพวกเขา Hobbs & Shaw เป็นการกระแทกเปิดประตูใหม่สู่จักรวาล Fast เมื่อแอ็กชั่นของมันพุ่งทะยานไปทั่วโลก จากลอสแองเจลิสสู่ลอนดอน และจากเมืองร้างที่เต็มไปด้วยสารพิษอย่างเชอร์โนบิล สู่ความงามที่เขียวชอุ่มของซามัว!!!

Complete name : [MINI Super-HQ]_Fast.&.Furious.Presents.Hobbs.&.Shaw.2019.1080p.BrRip.DTS.x264.THB.One2loadup.com.mkv
Format : Matroska
Format version : Version 4
File size : 4.32 GiB
Duration : 2 h 15 min
Overall bit rate : 4 554 kb/s
Movie name : [MINI Super-HQ]_Fast.&.Furious.Presents.Hobbs.&.Shaw.2019.1080p.BrRip.DTS.x264.THB.One2loadup.com
Encoded date : UTC 2019-11-15 08:43:52
Writing application : mkvmerge v9.8.0 (‘Kuglblids’) 64bit
Writing library : libebml v1.3.4 + libmatroska v1.4.5

Video
ID : 1
Format : AVC
Format/Info : Advanced Video Codec
Format profile : [email protected]
Format settings : CABAC / 4 Ref Frames
Format settings, CABAC : Yes
Format settings, ReFrames : 4 frames
Codec ID : V_MPEG4/ISO/AVC
Duration : 2 h 15 min
Bit rate : 3 003 kb/s
Width : 1 920 pixels
Height : 804 pixels
Display aspect ratio : 2.40:1
Frame rate mode : Constant
Frame rate : 23.976 (24000/1001) FPS
Color space : YUV
Chroma subsampling : 4:2:0
Bit depth : 8 bits
Scan type : Progressive
Bits/(Pixel*Frame) : 0.081
Stream size : 2.85 GiB (66%)
Title : [MINI Super-HQ]_Fast.&.Furious.Presents.Hobbs.&[email protected]
Writing library : x264 core 157 r2935 545de2f
Encoding settings : cabac=1 / ref=3 / deblock=1:0:0 / analyse=0x3:0x133 / me=umh / subme=11 / psy=1 / psy_rd=1.00:0.00 / mixed_ref=1 / me_range=48 / chroma_me=1 / trellis=2 / 8x8dct=1 / cqm=0 / deadzone=21,11 / fast_pskip=1 / chroma_qp_offset=-2 / threads=10 / lookahead_threads=1 / sliced_threads=0 / nr=0 / decimate=1 / interlaced=0 / bluray_compat=0 / constrained_intra=0 / bframes=3 / b_pyramid=2 / b_adapt=2 / b_bias=0 / direct=3 / weightb=1 / open_gop=0 / weightp=2 / keyint=240 / keyint_min=24 / scenecut=40 / intra_refresh=0 / rc_lookahead=60 / rc=2pass / mbtree=1 / bitrate=3003 / ratetol=1.0 / qcomp=0.60 / qpmin=0 / qpmax=69 / qpstep=4 / cplxblur=20.0 / qblur=0.5 / vbv_maxrate=25000 / vbv_bufsize=31250 / nal_hrd=none / filler=0 / ip_ratio=1.40 / aq=1:1.00
Language : English
Default : Yes
Forced : No
Color range : Limited
Color primaries : BT.709
Transfer characteristics : BT.709
Matrix coefficients : BT.709

Audio #1
ID : 2
Format : AC-3
Format/Info : Audio Coding 3
Commercial name : Dolby Digital
Codec ID : A_AC3
Duration : 2 h 15 min
Bit rate mode : Constant
Bit rate : 640 kb/s
Channel(s) : 6 channels
Channel layout : L R C LFE Ls Rs
Sampling rate : 48.0 kHz
Frame rate : 31.250 FPS (1536 SPF)
Bit depth : 16 bits
Compression mode : Lossy
Delay relative to video : -5 ms
Stream size : 622 MiB (14%)
Title : Thai BluRay Master
Language : Thai
Service kind : Complete Main
Default : Yes
Forced : Yes

Audio #2
ID : 3
Format : DTS
Format/Info : Digital Theater Systems
Codec ID : A_DTS
Duration : 2 h 15 min
Bit rate mode : Constant
Bit rate : 755 kb/s
Channel(s) : 6 channels
Channel layout : C L R Ls Rs LFE
Sampling rate : 48.0 kHz
Frame rate : 93.750 FPS (512 SPF)
Bit depth : 24 bits
Compression mode : Lossy
Delay relative to video : -5 ms
Stream size : 734 MiB (17%)
Title : English DTS
Language : English
Default : No
Forced : No

Text #1
ID : 4
Format : VobSub
Codec ID : S_VOBSUB
Codec ID/Info : Picture based subtitle format used on DVDs
Duration : 33 s 314 ms
Bit rate : 2 967 b/s
Count of elements : 1
Stream size : 12.1 KiB (0%)
Language : Thai
Default : Yes
Forced : Yes

Text #2
ID : 5
Format : VobSub
Codec ID : S_VOBSUB
Codec ID/Info : Picture based subtitle format used on DVDs
Duration : 2 h 15 min
Bit rate : 3 101 b/s
Count of elements : 1641
Stream size : 3.00 MiB (0%)
Title : Thai 720p
Language : Thai
Default : No
Forced : No

Text #3
ID : 6
Format : VobSub
Codec ID : S_VOBSUB
Codec ID/Info : Picture based subtitle format used on DVDs
Duration : 2 h 15 min
Bit rate : 5 851 b/s
Count of elements : 1641
Stream size : 5.66 MiB (0%)
Title : Thai 1080p
Language : Thai
Default : No
Forced : No

Text #4
ID : 7
Format : VobSub
Codec ID : S_VOBSUB
Codec ID/Info : Picture based subtitle format used on DVDs
Duration : 2 h 15 min
Bit rate : 5 843 b/s
Count of elements : 1641
Stream size : 5.65 MiB (0%)
Title : Thai 1080p Yellow
Language : Thai
Default : No
Forced : No

Text #5
ID : 8
Format : VobSub
Codec ID : S_VOBSUB
Codec ID/Info : Picture based subtitle format used on DVDs
Duration : 2 h 15 min
Bit rate : 5 851 b/s
Count of elements : 1641
Stream size : 5.66 MiB (0%)
Title : Thai 1080p Out
Language : Thai
Default : No
Forced : No

Text #6
ID : 9
Format : VobSub
Codec ID : S_VOBSUB
Codec ID/Info : Picture based subtitle format used on DVDs
Duration : 2 h 15 min
Bit rate : 7 834 b/s
Count of elements : 1641
Stream size : 7.58 MiB (0%)
Title : Thai 1080p BIG
Language : Thai
Default : No
Forced : No

Text #7
ID : 10
Format : PGS
Codec ID : S_HDMV/PGS
Codec ID/Info : Picture based subtitle format used on BDs/HD-DVDs
Duration : 2 h 15 min
Bit rate : 26.7 kb/s
Count of elements : 3286
Stream size : 25.8 MiB (1%)
Title : Thai PGS BluRay Master
Language : Thai
Default : No
Forced : No

Text #8
ID : 11
Format : PGS
Codec ID : S_HDMV/PGS
Codec ID/Info : Picture based subtitle format used on BDs/HD-DVDs
Duration : 2 h 15 min
Bit rate : 26.6 kb/s
Count of elements : 3282
Stream size : 25.8 MiB (1%)
Title : Thai PGS Out
Language : Thai
Default : No
Forced : No

Text #9
ID : 12
Format : PGS
Codec ID : S_HDMV/PGS
Codec ID/Info : Picture based subtitle format used on BDs/HD-DVDs
Duration : 2 h 15 min
Bit rate : 72.3 kb/s
Count of elements : 4404
Stream size : 70.2 MiB (2%)
Title : English
Language : English
Default : No
Forced : No

Menu
00:00:00.000 : en:Chapter 1
00:04:58.047 : en:Chapter 2
00:13:42.738 : en:Chapter 3
00:19:20.826 : en:Chapter 4
00:26:45.437 : en:Chapter 5
00:35:40.638 : en:Chapter 6
00:40:12.618 : en:Chapter 7
00:46:21.528 : en:Chapter 8
00:51:33.298 : en:Chapter 9
00:57:51.301 : en:Chapter 10
01:01:52.375 : en:Chapter 11
01:08:44.411 : en:Chapter 12
01:14:22.291 : en:Chapter 13
01:19:47.407 : en:Chapter 14
01:24:58.343 : en:Chapter 15
01:32:57.405 : en:Chapter 16
01:38:48.839 : en:Chapter 17
01:46:32.344 : en:Chapter 18
01:53:28.760 : en:Chapter 19
02:01:14.183 : en:Chapter 20

DOWNLOAD


PART01 |||| PART02 |||| PART03 |||| PART04 |||| PART05

PART01 |||| PART02 |||| PART03 |||| PART04 |||| PART05

PART01 |||| PART02 |||| PART03 |||| PART04 |||| PART05

PART01 |||| PART02 |||| PART03 |||| PART04 |||| PART05


6 Comments
  1. Add says

    แอดครับ ทำไมเวลาโหลดของ PandaFiles มันขึ้นแบบนี้เหรอครับ
    No such file with this filename โหลดไม่ได้เลยครับ

    1. Admin
      Admin says

      โหลดได้ปกตินะฮ๊ะ ไม่ทราบติดปัญหาตรงไหนเอ่ย

  2. Molta says

    Part 4 แตก File ไม่ได้ครับ

    1. Admin
      Admin says

      แยกไฟล์ไม่ได้แนะนำให้ใช้ winrar เวอร์ชั่นล่าสุดฮ๊ะ

  3. Molta says

    Part 4 แตก File ไม่ได้ครับ Fast & Furious Presents: Hobbs & Shaw

    1. Admin
      Admin says

      แยกไฟล์ไม่ได้แนะนำให้ใช้ winrar เวอร์ชั่นล่าสุดฮ๊ะ

Leave A Reply

Your email address will not be published.

%d bloggers like this: