[MINI Super-HQ] Dora and the Lost City of Gold (2019) ดอร่า และเมืองทองคำที่สาบสูญ [1080p] [พากย์ไทย 5.1 + เสียงอังกฤษ DTS] [บรรยายไทย + อังกฤษ] [เสียงไทย + ซับไทย] [PANDAFILE]

1

Dora and the Lost City of Gold (2019)

โหลดหนัง Dora and the Lost City of Gold (2019) ดอร่า และเมืองทองคำที่สาบสูญ

Dora und die goldene Stadt (2019) 1h 42min | Adventure, Family | 10 October 2019 (Germany) Summary: Dora, a teenage explorer, leads her friends on an adventure to save her parents and solve the mystery behind a lost city of gold.
Countries: USA, Mexico, AustraliaLanguages: English, Spanish

เรื่องย่อ Dora and the Lost City of Gold (2019) ดอร่า และเมืองทองคำที่สาบสูญ

เป็นเรื่องราวเกี่ยวกับ ดอร่า (อิซาเบล่า โมเนอร์) สาวน้อยนักผจญภัย ซึ่งใช้ชีวิตอยู่กับครอบครัวนักสำรวจในป่าแล้วย้ายเข้ามาเรียนมัธยมปลายในเมืองเธอเข้าสู่การผจญภัยครั้งใหม่พร้อมกับ “บูตส์” ลิงเพื่อนรัก, ดีเอโก (เจฟฟรีย์ วอห์ลเบิร์ก), บุคคลลึกลับที่อยู่ในป่า (ยูเฮนิโอ เดอเบซ) และกลุ่มวัยรุ่น เพื่อช่วยพ่อแม่ของเธอ (อีวา ลองโกเรีย และไมเคิล พีนา) และไขปริศนาของเมืองทองคำที่สาบสูญ!!!

Complete name : [MINI Super-HQ]_Dora.and.the.Lost.City.of.Gold.2019.1080p.BrRip.DTS.x264.One2loadup.com.mkv
Format : Matroska
Format version : Version 4
File size : 4.11 GiB
Duration : 1 h 42 min
Overall bit rate : 5 747 kb/s
Movie name : [MINI Super-HQ]_Dora.and.the.Lost.City.of.Gold.2019.1080p.BrRip.DTS.x264.One2loadup.com
Encoded date : UTC 2019-11-10 13:20:56
Writing application : mkvmerge v9.8.0 (‘Kuglblids’) 64bit
Writing library : libebml v1.3.4 + libmatroska v1.4.5

Video
ID : 1
Format : AVC
Format/Info : Advanced Video Codec
Format profile : [email protected]
Format settings : CABAC / 4 Ref Frames
Format settings, CABAC : Yes
Format settings, ReFrames : 4 frames
Codec ID : V_MPEG4/ISO/AVC
Duration : 1 h 42 min
Bit rate : 4 250 kb/s
Width : 1 920 pixels
Height : 1 080 pixels
Display aspect ratio : 16:9
Frame rate mode : Constant
Frame rate : 23.976 (24000/1001) FPS
Color space : YUV
Chroma subsampling : 4:2:0
Bit depth : 8 bits
Scan type : Progressive
Bits/(Pixel*Frame) : 0.085
Stream size : 3.04 GiB (74%)
Title : [MINI Super-HQ]_Dora.and.the.Lost.City.of.Gold.2019.1080p.BrRip.DTS.x264.One2loadup.com
Writing library : x264 core 146 r2538 121396c
Encoding settings : cabac=1 / ref=5 / deblock=1:-3:-3 / analyse=0x3:0x133 / me=tesa / subme=11 / psy=1 / psy_rd=1.00:0.15 / mixed_ref=1 / me_range=48 / chroma_me=1 / trellis=2 / 8x8dct=1 / cqm=0 / deadzone=21,11 / fast_pskip=1 / chroma_qp_offset=-3 / threads=54 / lookahead_threads=4 / sliced_threads=0 / nr=0 / decimate=1 / interlaced=0 / bluray_compat=1 / constrained_intra=0 / bframes=3 / b_pyramid=1 / b_adapt=2 / b_bias=0 / direct=3 / weightb=1 / open_gop=0 / weightp=1 / keyint=250 / keyint_min=1 / scenecut=40 / intra_refresh=0 / rc_lookahead=60 / rc=2pass / mbtree=1 / bitrate=4250 / ratetol=1.0 / qcomp=0.60 / qpmin=0 / qpmax=69 / qpstep=4 / cplxblur=20.0 / qblur=0.5 / ip_ratio=1.40 / aq=1:1.30
Language : English
Default : Yes
Forced : No

Audio #1
ID : 2
Format : AC-3
Format/Info : Audio Coding 3
Commercial name : Dolby Digital
Codec ID : A_AC3
Duration : 1 h 42 min
Bit rate mode : Constant
Bit rate : 640 kb/s
Channel(s) : 6 channels
Channel layout : L R C LFE Ls Rs
Sampling rate : 48.0 kHz
Frame rate : 31.250 FPS (1536 SPF)
Bit depth : 16 bits
Compression mode : Lossy
Stream size : 469 MiB (11%)
Title : Thai BluRay Master
Language : Thai
Service kind : Complete Main
Default : Yes
Forced : Yes

Audio #2
ID : 3
Format : DTS
Format/Info : Digital Theater Systems
Codec ID : A_DTS
Duration : 1 h 42 min
Bit rate mode : Constant
Bit rate : 755 kb/s
Channel(s) : 6 channels
Channel layout : C L R Ls Rs LFE
Sampling rate : 48.0 kHz
Frame rate : 93.750 FPS (512 SPF)
Bit depth : 24 bits
Compression mode : Lossy
Stream size : 553 MiB (13%)
Title : English DTS
Language : English
Default : No
Forced : No

Text #1
ID : 4
Format : VobSub
Codec ID : S_VOBSUB
Codec ID/Info : Picture based subtitle format used on DVDs
Duration : 1 h 41 min
Bit rate : 3 874 b/s
Count of elements : 1412
Stream size : 2.81 MiB (0%)
Title : Thai 720p
Language : Thai
Default : No
Forced : No

Text #2
ID : 5
Format : VobSub
Codec ID : S_VOBSUB
Codec ID/Info : Picture based subtitle format used on DVDs
Duration : 1 h 41 min
Bit rate : 7 298 b/s
Count of elements : 1412
Stream size : 5.30 MiB (0%)
Title : Thai 1080p
Language : Thai
Default : Yes
Forced : Yes

Text #3
ID : 6
Format : VobSub
Codec ID : S_VOBSUB
Codec ID/Info : Picture based subtitle format used on DVDs
Duration : 1 h 41 min
Bit rate : 7 289 b/s
Count of elements : 1412
Stream size : 5.30 MiB (0%)
Title : Thai 1080p Yellow
Language : Thai
Default : No
Forced : No

Text #4
ID : 7
Format : VobSub
Codec ID : S_VOBSUB
Codec ID/Info : Picture based subtitle format used on DVDs
Duration : 1 h 41 min
Bit rate : 9 783 b/s
Count of elements : 1412
Stream size : 7.11 MiB (0%)
Title : Thai 1080p BIG
Language : Thai
Default : No
Forced : No

Text #5
ID : 8
Format : PGS
Codec ID : S_HDMV/PGS
Codec ID/Info : Picture based subtitle format used on BDs/HD-DVDs
Duration : 1 h 41 min
Bit rate : 33.1 kb/s
Count of elements : 2828
Stream size : 24.0 MiB (1%)
Title : Thai PGS BluRay Master
Language : Thai
Default : No
Forced : No

Text #6
ID : 9
Format : PGS
Codec ID : S_HDMV/PGS
Codec ID/Info : Picture based subtitle format used on BDs/HD-DVDs
Duration : 1 h 37 min
Bit rate : 42.9 kb/s
Count of elements : 2800
Stream size : 29.8 MiB (1%)
Language : English
Default : No
Forced : No

DOWNLOAD


PART01 |||| PART02 |||| PART03 |||| PART04 |||| PART05

PART01 |||| PART02 |||| PART03 |||| PART04 |||| PART05

PART01 |||| PART02 |||| PART03 |||| PART04 |||| PART05

PART01 |||| PART02 |||| PART03 |||| PART04 |||| PART05


1 Comment
  1. Inwat Chaichatchawal
    Inwat Chaichatchawal says

    หนังสนุกมากๆ ขอบคุณครับ

Leave A Reply

Your email address will not be published.

%d bloggers like this: