[MINI Super-HQ] Destination Wedding (2018) ไปงานแต่งเขา แต่เรารักกัน [1080p] [พากย์ไทย 5.1 + เสียงอังกฤษ DTS] [บรรยายไทย + อังกฤษ] [เสียงไทย + ซับไทย] [OPENLOAD]

2

Destination Wedding (2018)

โหลดหนัง Destination Wedding (2018) ไปงานแต่งเขา แต่เรารักกัน

Destination Wedding (2018) 1h 27min | Comedy, Drama, Romance | 2 August 2018 (Germany) Summary: The story of two miserable and unpleasant wedding guests, Lindsay and Frank, who develop a mutual affection despite themselves.
Countries: USALanguages: English

เรื่องย่อ Destination Wedding (2018) ไปงานแต่งเขา แต่เรารักกัน

การกลับมาพบกันอีกครั้งของสองนักแสดงระดับไอค่อนแห่ง ยุค 90 นักแสดงชายหน้าหนุ่มตลอดกาล อย่าง “คีอานู รีฟส์” จากภาพยนตร์ John Wick (จอห์น วิค)และ “วิโนน่า ไรเดอร์” นักแสดงหญิงผู้เข้าชิงรางวัลลูกโลกทองคำจากซีรีย์ยอด นิยม  Stranger Things” (สะแตรนเจอร์ ธิงค์) กำลังจะโคจรมาพบกันใน “DESTINATION WEDDING (เดสติเนชั่น เวดดิ้ง) ไปงานแต่งเขาแต่เรารักกัน”ภาพยนตร์โรแมนติกคอเมดี้ที่จะทำให้เหล่าคนโสดต้องหัว ใจเต้นแรง กับเรื่องราวของคนสองขั้วที่ทั้งคู่ต้องเดินทางไปร่วมงานแต่งนอกสถานที่ด้วยกันแม้จะดูเหมือนว่าพวกเขาทั้งสองจะเข้ากันไม่ได้เลยแม้ แต่น้อยก็ตามที “DESTINATION WEDDING (เดสติเนชั่น เวดดิ้ง)” บอกเล่าเรื่องราวของ แฟรงค์ (คีอานู รีฟส์) และ ลินซี่ (วิโนน่า ไรเดอร์) แขกรับเชิญสองคนที่ตกอยู่ในสถานการณ์บังคับให้ต้องร่วมทางกันเพื่อเดินทางไปยังงานแต่งนอกสถานที่พวกเขาต่างรู้สึกเบื่อหน่ายกับงานแต่งครั้งนี้ นั่นเป็นเพราะทั้งแฟรงค์และลินซี่ไม่ใช่คนที่เชื่อในความรัก แต่ถึงแม้พวกเขาจะมีปากเสียงกันตลอดเวลาความสัมพันธ์บางอย่างระหว่างเขาและเธอกลับเริ่มงอกเงยในงานแต่งสุดอลเวงครั้งนี้!!!

Complete name : [MINI Super-HQ]_Destination.Wedding.2018.1080p.BrRip.DTS.x264.One2loadup.com.mkv
Format : Matroska
Format version : Version 4
File size : 3.95 GiB
Duration : 1 h 26 min
Overall bit rate : 6 543 kb/s
Movie name : [MINI Super-HQ]_Destination.Wedding.2018.1080p.BrRip.DTS.x264.One2loadup.com
Encoded date : UTC 2010-02-22 21:41:31
Writing application : mkvmerge v5.9.0 (‘On The Loose’) built on Dec 9 2012 15:37:01
Writing library : libebml v1.3.0 + libmatroska v1.4.0

Video
ID : 1
Format : AVC
Format/Info : Advanced Video Codec
Format profile : [email protected]
Format settings : CABAC / 4 Ref Frames
Format settings, CABAC : Yes
Format settings, ReFrames : 4 frames
Codec ID : V_MPEG4/ISO/AVC
Duration : 1 h 26 min
Bit rate : 5 115 kb/s
Width : 1 920 pixels
Height : 804 pixels
Display aspect ratio : 2.40:1
Frame rate mode : Constant
Frame rate : 24.000 FPS
Color space : YUV
Chroma subsampling : 4:2:0
Bit depth : 8 bits
Scan type : Progressive
Bits/(Pixel*Frame) : 0.138
Stream size : 3.15 GiB (80%)
Title : [MINI Super-HQ]_Destination.Wedding.2018.1080p.BrRip.DTS.x264.One2loadup.com
Writing library : x264 core 157 r2935 545de2f
Encoding settings : cabac=1 / ref=3 / deblock=1:0:0 / analyse=0x3:0x133 / me=umh / subme=11 / psy=1 / psy_rd=1.00:0.00 / mixed_ref=1 / me_range=48 / chroma_me=1 / trellis=2 / 8x8dct=1 / cqm=0 / deadzone=21,11 / fast_pskip=1 / chroma_qp_offset=-2 / threads=10 / lookahead_threads=1 / sliced_threads=0 / nr=0 / decimate=1 / interlaced=0 / bluray_compat=0 / constrained_intra=0 / bframes=3 / b_pyramid=2 / b_adapt=1 / b_bias=0 / direct=3 / weightb=1 / open_gop=0 / weightp=2 / keyint=240 / keyint_min=24 / scenecut=40 / intra_refresh=0 / rc_lookahead=60 / rc=2pass / mbtree=1 / bitrate=5115 / ratetol=1.0 / qcomp=0.60 / qpmin=0 / qpmax=69 / qpstep=4 / cplxblur=20.0 / qblur=0.5 / vbv_maxrate=25000 / vbv_bufsize=31250 / nal_hrd=none / filler=0 / ip_ratio=1.40 / aq=1:1.00
Language : English
Default : Yes
Forced : No
Color range : Limited
Color primaries : BT.709
Transfer characteristics : BT.709
Matrix coefficients : BT.709

Audio #1
ID : 2
Format : AC-3
Format/Info : Audio Coding 3
Commercial name : Dolby Digital
Codec ID : A_AC3
Duration : 1 h 26 min
Bit rate mode : Constant
Bit rate : 448 kb/s
Channel(s) : 6 channels
Channel layout : L R C LFE Ls Rs
Sampling rate : 48.0 kHz
Frame rate : 31.250 FPS (1536 SPF)
Bit depth : 16 bits
Compression mode : Lossy
Stream size : 277 MiB (7%)
Title : Thai DVD Master
Language : Thai
Service kind : Complete Main
Default : Yes
Forced : Yes

Audio #2
ID : 3
Format : DTS
Format/Info : Digital Theater Systems
Codec ID : A_DTS
Duration : 1 h 26 min
Bit rate mode : Constant
Bit rate : 755 kb/s
Channel(s) : 6 channels
Channel layout : C L R Ls Rs LFE
Sampling rate : 48.0 kHz
Frame rate : 93.750 FPS (512 SPF)
Bit depth : 24 bits
Compression mode : Lossy
Stream size : 467 MiB (12%)
Title : English DTS
Language : English
Default : No
Forced : No

Text #1
ID : 4
Format : VobSub
Codec ID : S_VOBSUB
Codec ID/Info : Picture based subtitle format used on DVDs
Title : Thai 480p
Language : Thai
Default : No
Forced : No

Text #2
ID : 5
Format : VobSub
Codec ID : S_VOBSUB
Codec ID/Info : Picture based subtitle format used on DVDs
Title : Thai 720p
Language : Thai
Default : No
Forced : No

Text #3
ID : 6
Format : VobSub
Codec ID : S_VOBSUB
Codec ID/Info : Picture based subtitle format used on DVDs
Title : Thai 1080p
Language : Thai
Default : Yes
Forced : Yes

Text #4
ID : 7
Format : VobSub
Codec ID : S_VOBSUB
Codec ID/Info : Picture based subtitle format used on DVDs
Title : Thai 1080p Yellow
Language : Thai
Default : No
Forced : No

Text #5
ID : 8
Format : VobSub
Codec ID : S_VOBSUB
Codec ID/Info : Picture based subtitle format used on DVDs
Title : Thai 1080p Out
Language : Thai
Default : No
Forced : No

Text #6
ID : 9
Format : VobSub
Codec ID : S_VOBSUB
Codec ID/Info : Picture based subtitle format used on DVDs
Title : Thai 1080p BIG
Language : Thai
Default : No
Forced : No

Text #7
ID : 10
Format : VobSub
Codec ID : S_VOBSUB
Codec ID/Info : Picture based subtitle format used on DVDs
Title : Thai 1080p Out [BIG]
Language : Thai
Default : No
Forced : No

Text #8
ID : 11
Format : PGS
Codec ID : S_HDMV/PGS
Codec ID/Info : Picture based subtitle format used on BDs/HD-DVDs
Title : Thai PGS
Language : Thai
Default : No
Forced : No

Text #9
ID : 12
Format : PGS
Codec ID : S_HDMV/PGS
Codec ID/Info : Picture based subtitle format used on BDs/HD-DVDs
Title : Thai PGS Yellow
Language : Thai
Default : No
Forced : No

Text #10
ID : 13
Format : PGS
Codec ID : S_HDMV/PGS
Codec ID/Info : Picture based subtitle format used on BDs/HD-DVDs
Title : Thai PGS Out
Language : Thai
Default : No
Forced : No

Text #11
ID : 14
Format : VobSub
Codec ID : S_VOBSUB
Codec ID/Info : Picture based subtitle format used on DVDs
Title : English
Language : English
Default : No
Forced : No

DOWNLOAD


PART01 |||| PART02 |||| PART03 |||| PART04

PART01 |||| PART02 |||| PART03 |||| PART04

PART01 |||| PART02 |||| PART03 |||| PART04

PART01 |||| PART02 |||| PART03 |||| PART04


2 Comments
  1. Tumnakub01
    Tumnakub01 says

    ระบบเติมเงินมีปัญหาป่าวครับ…เติมไม่ได้เลย

    1. Admin
      Admin says

      ปัญหาแบบไหนฮ๊ะ

Leave A Reply

Your email address will not be published.