[MINI Super-HQ] Blackthorn (2011) เสือลายคราม [1080p] [พากย์ไทย 5.1 + เสียงอังกฤษ DTS] [บรรยายไทย + อังกฤษ] [เสียงไทย + ซับไทย] [ONE2UP]

0

โหลดหนัง  Blackthorn (2011) เสือลายคราม

เรื่องย่อ Blackthorn (2011) เสือลายคราม

ตามตำนานบุทช์ แคสซิดี้จอมโจรชื่อดังของอเมริกาได้เสียชีวิตไปแล้ว แต่อันที่จริง เขาหนีไปใช้ชีวิตอยู่ในโบลิเวียแต่เมื่ออดีตสาวคนรักเสียชีวิตลงและทิ้งลูกชายที่เขา ไม่เคยเห็นหน้าเอาไว้ที่อเมริกา เจมส์ แบล็คธอร์น หรือบุทช์ แคสซิดี้จึงรวบรวมสมบัติที่เขาสะสมเพื่อเดินทางกลับไปหาลูกชายแต่ระหว่างทางเขาพบกับเอดัวร์โด้ วิศวกรที่ขโมยเงินจากผู้มีอิทธิพล
ทำให้ทั้งเจมส์และเอดัวร์โด้ถูกตามล่า เขากับเอดัวร์โด้ หนีการตามล่าเพื่อข้ามพรมแดนโบลิเวียกลับไปอเมริกาเพื่อตั้งต้นชี วิตใหม่แต่ระหว่างทาง ความจริงทุกอย่างก็ถูกเปิดเผย

Complete name : [MINI Super-HQ]_Blackthorn.2011.1080p.DTS.One2loadup.com.mkv
Format : Matroska
Format version : Version 4 / Version 2
File size : 8.30 GiB
Duration : 1 h 42 min
Overall bit rate : 11.6 Mb/s
Encoded date : UTC 2016-01-28 17:45:39
Writing application : mkvmerge v8.2.0 (‘World of Adventure’) 64bit
Writing library : libebml v1.3.1 + libmatroska v1.4.2

Video
ID : 1
Format : AVC
Format/Info : Advanced Video Codec
Format profile : [email protected]
Format settings : CABAC / 5 Ref Frames
Format settings, CABAC : Yes
Format settings, ReFrames : 5 frames
Codec ID : V_MPEG4/ISO/AVC
Duration : 1 h 42 min
Bit rate : 9 192 kb/s
Width : 1 920 pixels
Height : 816 pixels
Display aspect ratio : 2.35:1
Frame rate mode : Constant
Frame rate : 23.976 (24000/1001) FPS
Color space : YUV
Chroma subsampling : 4:2:0
Bit depth : 8 bits
Scan type : Progressive
Bits/(Pixel*Frame) : 0.245
Stream size : 6.57 GiB (79%)
Writing library : x264 core 120 r2120 0c7dab9
Encoding settings : cabac=1 / ref=5 / deblock=1:0:0 / analyse=0x3:0x113 / me=umh / subme=8 / psy=1 / psy_rd=1.00:0.00 / mixed_ref=1 / me_range=16 / chroma_me=1 / trellis=1 / 8x8dct=1 / cqm=0 / deadzone=21,11 / fast_pskip=1 / chroma_qp_offset=-2 / threads=12 / sliced_threads=0 / nr=0 / decimate=1 / interlaced=0 / bluray_compat=0 / constrained_intra=0 / bframes=3 / b_pyramid=2 / b_adapt=2 / b_bias=0 / direct=3 / weightb=1 / open_gop=0 / weightp=2 / keyint=240 / keyint_min=24 / scenecut=40 / intra_refresh=0 / rc_lookahead=50 / rc=2pass / mbtree=1 / bitrate=9192 / ratetol=1.0 / qcomp=0.60 / qpmin=0 / qpmax=69 / qpstep=4 / cplxblur=20.0 / qblur=0.5 / ip_ratio=1.40 / aq=1:1.00
Language : English
Default : Yes
Forced : No

Audio #1
ID : 2
Format : AC-3
Format/Info : Audio Coding 3
Codec ID : A_AC3
Duration : 1 h 42 min
Bit rate mode : Constant
Bit rate : 448 kb/s
Channel(s) : 6 channels
Channel positions : Front: L C R, Side: L R, LFE
Sampling rate : 48.0 kHz
Frame rate : 31.250 FPS (1536 SPF)
Bit depth : 16 bits
Compression mode : Lossy
Stream size : 328 MiB (4%)
Title : Thai AC-3
Language : Thai
Service kind : Complete Main
Default : Yes
Forced : Yes

Audio #2
ID : 3
Format : DTS
Format/Info : Digital Theater Systems
Codec ID : A_DTS
Duration : 1 h 42 min
Bit rate mode : Constant
Bit rate : 1 509 kb/s
Channel(s) : 6 channels
Channel positions : Front: L C R, Side: L R, LFE
Sampling rate : 48.0 kHz
Frame rate : 93.750 FPS (512 SPF)
Bit depth : 24 bits
Compression mode : Lossy
Stream size : 1.08 GiB (13%)
Title : Eng DTS
Language : English
Default : No
Forced : No

Audio #3
ID : 4
Format : AC-3
Format/Info : Audio Coding 3
Codec ID : A_AC3
Duration : 1 h 42 min
Bit rate mode : Constant
Bit rate : 448 kb/s
Channel(s) : 6 channels
Channel positions : Front: L C R, Side: L R, LFE
Sampling rate : 48.0 kHz
Frame rate : 31.250 FPS (1536 SPF)
Bit depth : 16 bits
Compression mode : Lossy
Stream size : 328 MiB (4%)
Title : Eng AC-3
Language : Spanish
Service kind : Complete Main
Default : No
Forced : No

Text #1
ID : 5
Format : VobSub
Muxing mode : zlib
Codec ID : S_VOBSUB
Codec ID/Info : Picture based subtitle format used on DVDs
Duration : 1 h 35 min
Bit rate : 1 328 b/s
Count of elements : 940
Stream size : 933 KiB (0%)
Title : Thai
Language : Thai
Default : No
Forced : No

Text #2
ID : 6
Format : VobSub
Muxing mode : zlib
Codec ID : S_VOBSUB
Codec ID/Info : Picture based subtitle format used on DVDs
Duration : 1 h 32 min
Bit rate : 200 b/s
Count of elements : 159
Stream size : 135 KiB (0%)
Title : Eng
Language : English
Default : No
Forced : No

Text #3
ID : 7
Format : UTF-8
Codec ID : S_TEXT/UTF8
Codec ID/Info : UTF-8 Plain Text
Duration : 1 h 39 min
Bit rate : 42 b/s
Count of elements : 1153
Stream size : 31.2 KiB (0%)
Title : Eng SRT
Language : English
Default : No
Forced : No

Menu #1
00:00:00.000 : en:00:00:00.000
00:09:49.923 : en:00:09:49.923
00:16:12.680 : en:00:16:12.680
00:20:21.637 : en:00:20:21.637
00:30:36.209 : en:00:30:36.209
00:40:30.386 : en:00:40:30.386
00:50:31.654 : en:00:50:31.654
00:56:09.825 : en:00:56:09.825
01:06:52.258 : en:01:06:52.258
01:17:57.006 : en:01:17:57.006
01:26:49.579 : en:01:26:49.579
01:36:44.382 : en:01:36:44.382

Menu #2
00:00:00.000 : en:Chapter 01
00:09:49.922 : en:Chapter 02
00:20:22.721 : en:Chapter 03
00:29:07.912 : en:Chapter 04
00:41:31.939 : en:Chapter 05
00:46:44.001 : en:Chapter 06
00:56:09.399 : en:Chapter 07
01:06:52.258 : en:Chapter 08
01:15:30.442 : en:Chapter 09
01:19:47.816 : en:Chapter 10
01:32:03.968 : en:Chapter 11
01:36:44.381 : en:Chapter 12

DOWNLOAD


PART01 |||| PART02 |||| PART03 |||| PART04 |||| PART05

PART01 |||| PART02 |||| PART03 |||| PART04 |||| PART05

PART01 |||| PART02 |||| PART03 |||| PART04 |||| PART05

PART01 |||| PART02 |||| PART03 |||| PART04 |||| PART05


Leave A Reply

Your email address will not be published.

%d bloggers like this: