[MINI Super-HQ] Alita: Battle Angel (2019) อลิตา แบทเทิล แองเจิ้ล [1080p] [IMAX Edition] [พากย์ไทย 5.1 + เสียงอังกฤษ DTS] [บรรยายไทย + อังกฤษ] [เสียงไทย + ซับไทย] [OPENLOAD]

0

โหลดหนัง Alita: Battle Angel (2019) อลิตา แบทเทิล แองเจิ้ล

Summary:

เรื่องย่อ Alita: Battle Angel (2019) อลิตา แบทเทิล แองเจิ้ล

ภาพยนตร์ดัดแปลงจากการ์ตูนญี่ปุ่นเรื่อง เพชฌฆาตไซบอร์ก หรือในชื่อญี่ปุ่นว่า Gunnm ซึ่งเขียนโดย คิชิโระ ยูกิโตะและได้รับการดัดแปลงเป็นแอนิเมชั่นจากเนื้อเรื่องในหนังสือเล่มแรก ๆในชื่อ Battle Angel เรื่องราวเกิดขึ้นในอนาคตอันไกลโพ้นซึ่งไซบอร์คและหุ่นยนตร์กลายเป็นเรื่องปกติ เมืองลอยฟ้าทิฟาเรส เก็บงำความลับอันดำมืด มันทิ้งขยะไร้ค่าลงสู่โล่งเบื้องล่างและที่ลานทิ้งขยะนั้นเอง แพทย์ไซบอร์ค อิโดะ พบเข้ากับชิ้นส่วนหัวและลำตัวของเด็กสาวไซบอร์คที่ยังมีชีวิตอยู่ได้มีเพียงสมองของเธอเท่านั้นที่เป็นมนุษย์ ส่วนอื่นในร่างกายของเธอล้วนเป็นเครื่องจักร เธอสูญเสียความทรงจำทั้งหมดในอดีตและได้ชื่อใหม่จากอิโดะ เอลิตา เขาสร้างเธอขึ้นมาใหม่อีกครั้งและกลายเป็นเสมือนบิดาของเธอในฐานะผู้มอบร่างกายใหม่ให้อย่างไรก็ตาม ข่าวการฆาตกรรมต่อเนื่องได้เริ่มแพร่กระจายไปในเมือง อลิตาเริ่มสงสัยอิโดะในฐานะผู้ลงมือเพื่อหาชิ้นส่วนร ่างกายให้เธอแต่เมื่อเธอติดตามเขาออกไปในคืนหนึ่ง จึงได้พบว่าที่แท้เขากำลังตามจับตัวฆาตกร ภายใต้ฐานะ ฮันเตอร์ วอร์ริเออร์ ที่เขาได้รับมอบหมายมา ระหว่างการเข้าปะทะกับฆาตกรตัวจริงนั้น สัญชาติญาณของเด็กสาวก็ทำงาน เธอล้มฆาตกรได้ด้วยศิลปะการต่อสู้โบราณผลสุดท้าย เธอจึงตัดสินใจเข้าช่วยเหลืออิโดะในการพิทักษ์ความยุ ติธรรม และได้กลายมาเป็นฮันเตอร์วอร์ริเออร์เช่นกันเธอปลดล็อคความสามารถและพลังที่แท้จริงของตนเอง เข้าต่อสู้กับศัตรูที่แสนอันตราย และเพื่อนผู้ยึดมั่นในอุดมการณ์!!!

Complete name : [MINI Super-HQ]_Alita.Battle.Angel.2019.1080p.IMAX.BrRip.AC3.x264.One2loadup.com.mkv
Format : Matroska
Format version : Version 4
File size : 4.62 GiB
Duration : 2 h 2 min
Overall bit rate : 5 413 kb/s
Movie name : [MINI Super-HQ]_Alita.Battle.Angel.2019.1080p.IMAX.BrRip.AC3.x264.One2loadup.com
Encoded date : UTC 2019-07-15 20:04:36
Writing application : mkvmerge v33.1.0 (‘Primrose’) 64-bit
Writing library : libebml v1.3.7 + libmatroska v1.5.0
Cover : Yes
Attachments : Cover.png

Video
ID : 1
Format : AVC
Format/Info : Advanced Video Codec
Format profile : [email protected]
Format settings : CABAC / 4 Ref Frames
Format settings, CABAC : Yes
Format settings, ReFrames : 4 frames
Codec ID : V_MPEG4/ISO/AVC
Duration : 2 h 2 min
Bit rate : 4 570 kb/s
Width : 1 920 pixels
Height : 1 080 pixels
Display aspect ratio : 16:9
Frame rate mode : Constant
Frame rate : 23.976 (24000/1001) FPS
Color space : YUV
Chroma subsampling : 4:2:0
Bit depth : 8 bits
Scan type : Progressive
Bits/(Pixel*Frame) : 0.092
Stream size : 3.84 GiB (83%)
Title : [MINI Super-HQ]_Alita.Battle.Angel.2019.1080p.IMAX.BrRip.AC3.x264.One2loadup.com
Writing library : x264 core 148 r2597M e86f3a1
Encoding settings : cabac=1 / ref=3 / deblock=1:-3:-3 / analyse=0x3:0x113 / me=hex / subme=7 / psy=1 / psy_rd=1.00:0.20 / mixed_ref=1 / me_range=16 / chroma_me=1 / trellis=1 / 8x8dct=1 / cqm=0 / deadzone=21,11 / fast_pskip=1 / chroma_qp_offset=-3 / threads=10 / lookahead_threads=1 / sliced_threads=0 / nr=0 / decimate=1 / interlaced=0 / bluray_compat=0 / constrained_intra=0 / bframes=3 / b_pyramid=2 / b_adapt=2 / b_bias=0 / direct=3 / weightb=1 / open_gop=0 / weightp=2 / keyint=230 / keyint_min=23 / scenecut=40 / intra_refresh=0 / rc_lookahead=40 / rc=cbr / mbtree=1 / bitrate=4570 / ratetol=1.0 / qcomp=0.60 / qpmin=0 / qpmax=69 / qpstep=4 / vbv_maxrate=4570 / vbv_bufsize=30000 / nal_hrd=none / filler=0 / ip_ratio=1.40 / aq=1:1.00
Language : English
Default : Yes
Forced : No
Color range : Limited
Color primaries : BT.709
Transfer characteristics : BT.709
Matrix coefficients : BT.709

Audio #1
ID : 2
Format : AC-3
Format/Info : Audio Coding 3
Commercial name : Dolby Digital
Codec ID : A_AC3
Duration : 2 h 1 min
Bit rate mode : Constant
Bit rate : 448 kb/s
Channel(s) : 6 channels
Channel layout : L R C LFE Ls Rs
Sampling rate : 48.0 kHz
Frame rate : 31.250 FPS (1536 SPF)
Bit depth : 16 bits
Compression mode : Lossy
Stream size : 391 MiB (8%)
Title : Thai AC3 5.1ch 448kbps
Language : Thai
Service kind : Complete Main
Default : No
Forced : No

Audio #2
ID : 3
Format : AC-3
Format/Info : Audio Coding 3
Commercial name : Dolby Digital
Codec ID : A_AC3
Duration : 2 h 1 min
Bit rate mode : Constant
Bit rate : 448 kb/s
Channel(s) : 6 channels
Channel layout : L R C LFE Ls Rs
Sampling rate : 48.0 kHz
Frame rate : 31.250 FPS (1536 SPF)
Bit depth : 16 bits
Compression mode : Lossy
Stream size : 391 MiB (8%)
Title : English AC3 5.1ch 448kbps
Language : English
Service kind : Complete Main
Default : Yes
Forced : No

Text #1
ID : 4
Format : VobSub
Muxing mode : zlib
Codec ID : S_VOBSUB
Codec ID/Info : Picture based subtitle format used on DVDs
Duration : 2 h 1 min
Bit rate : 5 511 b/s
Count of elements : 1261
Stream size : 4.79 MiB (0%)
Title : Thai 1080p
Language : Thai
Default : No
Forced : No

Text #2
ID : 5
Format : PGS
Muxing mode : zlib
Codec ID : S_HDMV/PGS
Codec ID/Info : Picture based subtitle format used on BDs/HD-DVDs
Duration : 2 h 1 min
Bit rate : 21.2 kb/s
Count of elements : 2522
Stream size : 18.4 MiB (0%)
Title : Thai PGS
Language : Thai
Default : No
Forced : Yes

Text #3
ID : 6
Format : UTF-8
Codec ID : S_TEXT/UTF8
Codec ID/Info : UTF-8 Plain Text
Duration : 2 h 1 min
Bit rate : 86 b/s
Count of elements : 1261
Stream size : 77.3 KiB (0%)
Title : Thai SRT
Language : Thai
Default : No
Forced : No

Text #4
ID : 7
Format : UTF-8
Codec ID : S_TEXT/UTF8
Codec ID/Info : UTF-8 Plain Text
Duration : 1 h 55 min
Bit rate : 41 b/s
Count of elements : 1347
Stream size : 34.9 KiB (0%)
Title : English SRT
Language : English
Default : Yes
Forced : No

Text #5
ID : 8
Format : UTF-8
Codec ID : S_TEXT/UTF8
Codec ID/Info : UTF-8 Plain Text
Duration : 1 h 55 min
Bit rate : 46 b/s
Count of elements : 1588
Stream size : 39.4 KiB (0%)
Title : English SRT
Language : English
Default : No
Forced : No

DOWNLOAD


PART01 |||| PART02 |||| PART03 |||| PART04 |||| PART05

PART01 |||| PART02 |||| PART03 |||| PART04 |||| PART05

PART01 |||| PART02 |||| PART03 |||| PART04 |||| PART05

PART01 |||| PART02 |||| PART03 |||| PART04 |||| PART05


Leave A Reply

Your email address will not be published.

%d bloggers like this: