[MINI Super-HQ] Alien 3 (1992) เอเลี่ยน อสูรสยบจักรวาล ภาค 3 [1080p] [พากย์ไทย 5.1 + เสียงอังกฤษ DTS] [บรรยายไทย + อังกฤษ] [เสียงไทย + ซับไทย] [OPENLOAD]

0

Alien 3 (1992) เอเลี่ยน อสูรสยบจักรวาล ภาค 3

โหลดหนัง Alien 3 (1992) เอเลี่ยน อสูรสยบจักรวาล ภาค 3

เรื่องย่อ Alien 3 (1992) เอเลี่ยน อสูรสยบจักรวาล ภาค 3

ร้อยโท ริปลี่ย์ (ซิกอร์นี่ย์ วีเวอร์) คือผู้รอดชีวิตเพียงคนเดียว หลังจากที่ยานลี้ภัยของเธอตกลงบนดาวฟิโอริน่า 161 ซี่งเป็นที่ใช้คุมขังอาชญากรร้ายแห่งจักรวาล สิ่งที่ริปลี่ย์หวาดหวั่นที่สุดว่าเอเลี่ยนตัวหนึ่ง อาจติดสอยห้อยตามเธอมาบนยานอวกาศเดียวกัน กลายเป็นความจริง เมื่อนักโทษหลายๆ คนถูกพบเป็นศพ เมื่อไร้เครื่องมือและอาวุธล้ำสมัยสำหรับช่วยในการต่อสู้เพื่อชีวิตรอด ริปลี่ย์จึงต้องเป็นผู้นำอาชญากรเหล่านี้ต่อสู้กับเอเลี่ยน และไม่นานเธอก็พบว่าในร่างกายเธอมีตัวอ่อนของเอเลี่ยนฝังอยู่ ความจริงที่น่ากลัว ทำให้ริปลี่ย์ไม่เพียงแต่ต้องหาทางกำจัดเอเลี่ยนเท่านั้น แต่เธอจำต้องเสียสละด้วยการทำลายตัวเองอีกด้วย!!!!

Complete name : [MINI Super-HQ]_3.Alien.1992.1080p.DTS.x264.One2loadup.com.mkv
Format : Matroska
Format version : Version 4
File size : 5.95 GiB
Duration : 2 h 24 min
Overall bit rate : 5 876 kb/s
Movie name : [MINI Super-HQ]_3.Alien.1992.1080p.DTS.x264.One2loadup.com
Encoded date : UTC 2017-09-03 04:11:24 / UTC 2017-09-02T18:10:46Z
Writing application : mkvmerge v8.3.0 (‘Over the Horizon’) 64bit
Writing library : libebml v1.3.1 + libmatroska v1.4.2 / Lavf55.12.0

Video
ID : 1
Format : AVC
Format/Info : Advanced Video Codec
Format profile : [email protected]
Format settings : CABAC / 4 Ref Frames
Format settings, CABAC : Yes
Format settings, ReFrames : 4 frames
Codec ID : V_MPEG4/ISO/AVC
Duration : 2 h 24 min
Bit rate : 3 802 kb/s
Width : 1 920 pixels
Height : 812 pixels
Display aspect ratio : 2.35:1
Original display aspect rat : 2.35:1
Frame rate mode : Constant
Frame rate : 23.976 (24000/1001) FPS
Color space : YUV
Chroma subsampling : 4:2:0
Bit depth : 8 bits
Scan type : Progressive
Bits/(Pixel*Frame) : 0.102
Stream size : 3.85 GiB (65%)
Title : [MINI Super-HQ]_3.Alien.1992.1080p.DTS.x264.One2loadup.com
Writing library : x264 core 142 r2479 dd79a61
Encoding settings : cabac=1 / ref=1 / deblock=1:0:0 / analyse=0x1:0x111 / me=hex / subme=2 / psy=1 / psy_rd=1.00:0.00 / mixed_ref=0 / me_range=16 / chroma_me=1 / trellis=0 / 8x8dct=0 / cqm=0 / deadzone=21,11 / fast_pskip=1 / chroma_qp_offset=0 / threads=6 / lookahead_threads=2 / sliced_threads=0 / nr=0 / decimate=1 / interlaced=0 / bluray_compat=0 / constrained_intra=0 / bframes=3 / b_pyramid=2 / b_adapt=1 / b_bias=0 / direct=1 / weightb=1 / open_gop=0 / weightp=1 / keyint=240 / keyint_min=24 / scenecut=40 / intra_refresh=0 / rc_lookahead=10 / rc=crf / mbtree=1 / crf=20.0 / qcomp=0.60 / qpmin=0 / qpmax=69 / qpstep=4 / vbv_maxrate=20000 / vbv_bufsize=25000 / crf_max=0.0 / nal_hrd=none / filler=0 / ip_ratio=1.40 / aq=1:1.00
Language : Thai
Default : Yes
Forced : Yes
Color range : Limited
Color primaries : BT.709
Transfer characteristics : BT.709
Matrix coefficients : BT.709

Audio #1
ID : 2
Format : DTS
Format/Info : Digital Theater Systems
Codec ID : A_DTS
Duration : 2 h 24 min
Bit rate mode : Constant
Bit rate : 1 509 kb/s
Channel(s) : 6 channels
Channel layout : C L R Ls Rs LFE
Sampling rate : 48.0 kHz
Frame rate : 93.750 FPS (512 SPF)
Bit depth : 24 bits
Compression mode : Lossy
Stream size : 1.53 GiB (26%)
Title : Surround
Language : English
Default : No
Forced : No

Audio #2
ID : 3
Format : AC-3
Format/Info : Audio Coding 3
Commercial name : Dolby Digital
Codec ID : A_AC3
Duration : 2 h 24 min
Bit rate mode : Constant
Bit rate : 448 kb/s
Channel(s) : 6 channels
Channel layout : L R C LFE Ls Rs
Sampling rate : 48.0 kHz
Frame rate : 31.250 FPS (1536 SPF)
Bit depth : 16 bits
Compression mode : Lossy
Stream size : 464 MiB (8%)
Title : Surround
Language : Thai
Service kind : Complete Main
Default : Yes
Forced : Yes

Text #1
ID : 4
Format : PGS
Muxing mode : zlib
Codec ID : S_HDMV/PGS
Codec ID/Info : Picture based subtitle format used on BDs/HD-DVDs
Language : English
Default : No
Forced : No

Text #2
ID : 5
Format : PGS
Muxing mode : zlib
Codec ID : S_HDMV/PGS
Codec ID/Info : Picture based subtitle format used on BDs/HD-DVDs
Language : Thai
Default : Yes
Forced : Yes

Menu
00:00:00.000 : :Chapter 1
00:03:43.073 : :Chapter 2
00:04:31.580 : :Chapter 4
00:09:29.044 : :Chapter 5
00:12:13.500 : :Chapter 6
00:15:01.543 : :Chapter 7
00:16:33.802 : :Chapter 8
00:24:28.025 : :Chapter 9
00:26:31.857 : :Chapter 10
00:31:07.841 : :Chapter 11
00:33:12.925 : :Chapter 12
00:35:53.252 : :Chapter 13
00:37:43.362 : :Chapter 14
00:43:32.836 : :Chapter 15
00:46:11.369 : :Chapter 16
00:49:15.386 : :Chapter 17
00:51:46.287 : :Chapter 18
00:55:52.158 : :Chapter 19
00:59:33.420 : :Chapter 20
01:02:51.535 : :Chapter 21
01:07:33.358 : :Chapter 22
01:11:03.735 : :Chapter 23
01:14:12.924 : :Chapter 25
01:17:08.391 : :Chapter 26
01:19:05.800 : :Chapter 27
01:24:41.135 : :Chapter 28
01:26:18.774 : :Chapter 29
01:28:02.961 : :Chapter 30
01:29:10.028 : :Chapter 31
01:34:12.038 : :Chapter 32
01:37:18.183 : :Chapter 34
01:39:29.355 : :Chapter 35
01:42:47.553 : :Chapter 36
01:46:07.545 : :Chapter 37
01:49:57.817 : :Chapter 38
01:54:04.897 : :Chapter 39
01:56:29.249 : :Chapter 41
01:58:32.998 : :Chapter 43
02:05:23.199 : :Chapter 44
02:08:09.282 : :Chapter 45
02:10:50.276 : :Chapter 46
02:12:43.014 : :Chapter 47
02:16:17.687 : :Chapter 48
02:19:10.067 : :Chapter 50

DOWNLOAD


PART01 |||| PART02 |||| PART03 |||| PART04 |||| PART05 |||| PART06

PART01 |||| PART02 |||| PART03 |||| PART04 |||| PART05 |||| PART06

PART01 |||| PART02 |||| PART03 |||| PART04 |||| PART05 |||| PART06

PART01 |||| PART02 |||| PART03 |||| PART04 |||| PART05 |||| PART06


Leave A Reply

Your email address will not be published.

%d bloggers like this: