[MINI Super-HQ] A Monster Calls (2016) มหัศจรรย์เรียกอสูร [1080p] [พากย์ไทย 5.1 + เสียงอังกฤษ 5.1] [บรรยายไทย + อังกฤษ] [เสียงไทย + ซับไทย] [ONE2UP]

0

A Monster Calls (2016) มหัศจรรย์เรียกอสูร

โหลดหนัง  A Monster Calls (2016) มหัศจรรย์เรียกอสูร

A Monster Calls (2016) 1h 48min | Animation, Drama, Fantasy | 2 February 2017 (Netherlands) Summary: A boy seeks the help of a tree monster to cope with his single mother's terminal illness.
Countries: UK, Spain, USALanguages: English

เรื่องย่อ A Monster Calls (2016) มหัศจรรย์เรียกอสูร

ผลงานครั้งใหม่ของผู้กำกับมือฉมัง “ฮวน อันโตนีโอ บาโยน่า” ที่เคยฝากผลงานยอดเยี่ยมอย่าง The Impossible และ The Orphanage เอาไว้พร้อมแท็กทีมกับผู้อำนวยการสร้างภาพยนตร์ดาร์คแฟนตาซีชนะ 3 รางวัลออสการ์อย่าง Pan’s Labyrinth

เรื่องราวสุดลี้ลับอัศจรรย์ของเด็กชายวัย 13 ปี “คอเนอร์ โอ มาลลีย์” (ลูอิส แม็คดูกัลล์) ที่พยายามรับมือกับการถูกเพื่อนกลั่นแกล้งในโรงเรียน และการช่วยเหลือแม่ (เฟลิซิตี้ โจนส์) ที่ป่วยเป็นมะเร็งระยะสุดท้าย กระทั่งค่ำคืนหนึ่งเขาได้พบกับสัตว์ประหลาดต้นไม้ยักษ์ (เลียม นีสัน) ที่นำพาเข้าไปในดินแดนเหนือจินตนาการ สถานที่แห่งนั้นเขาจะได้พบกับการเรียนรู้ ไม่ว่าจะเป็นการเสียสละและการสูญเสียซึ่งจะทำให้เปลี่ยนแปลงโลกแห่งความจริงของเขาไปตลอดกาล!!

Complete name : [MINI Super-HQ]_A.Monster.Calls.2016.1080p.BrRip.AC3.x264.One2loadup.com.mkv
Format : Matroska
Format version : Version 4
File size : 3.64 GiB
Duration : 1 h 48 min
Overall bit rate : 4 802 kb/s
Movie name : [MINI Super-HQ]_A.Monster.Calls.2016.1080p.BrRip.AC3.x264.One2loadup.com
Encoded date : UTC 2019-02-10 17:06:00
Writing application : mkvmerge v8.2.0 (‘World of Adventure’) 64bit
Writing library : libebml v1.3.1 + libmatroska v1.4.2

Video
ID : 1
Format : AVC
Format/Info : Advanced Video Codec
Format profile : [email protected]
Format settings : CABAC / 4 Ref Frames
Format settings, CABAC : Yes
Format settings, ReFrames : 4 frames
Codec ID : V_MPEG4/ISO/AVC
Duration : 1 h 48 min
Bit rate : 3 839 kb/s
Width : 1 920 pixels
Height : 804 pixels
Display aspect ratio : 2.40:1
Frame rate mode : Constant
Frame rate : 23.976 (24000/1001) FPS
Color space : YUV
Chroma subsampling : 4:2:0
Bit depth : 8 bits
Scan type : Progressive
Bits/(Pixel*Frame) : 0.104
Stream size : 2.91 GiB (80%)
Title : [MINI Super-HQ]_A.Monster.Calls.2016.1080p.BrRip.AC3.x264.One2loadup.com
Writing library : x264 core 130 r2273 b3065e6
Encoding settings : cabac=1 / ref=3 / deblock=1:0:0 / analyse=0x3:0x113 / me=umh / subme=11 / psy=1 / psy_rd=1.00:0.00 / mixed_ref=1 / me_range=48 / chroma_me=1 / trellis=2 / 8x8dct=1 / cqm=0 / deadzone=21,11 / fast_pskip=1 / chroma_qp_offset=-2 / threads=10 / lookahead_threads=1 / sliced_threads=0 / nr=0 / decimate=1 / interlaced=0 / bluray_compat=0 / constrained_intra=0 / bframes=3 / b_pyramid=2 / b_adapt=1 / b_bias=0 / direct=1 / weightb=1 / open_gop=0 / weightp=2 / keyint=240 / keyint_min=24 / scenecut=40 / intra_refresh=0 / rc_lookahead=40 / rc=2pass / mbtree=1 / bitrate=3839 / ratetol=1.0 / qcomp=0.60 / qpmin=0 / qpmax=69 / qpstep=4 / cplxblur=20.0 / qblur=0.5 / ip_ratio=1.40 / aq=1:1.00
Language : English
Default : Yes
Forced : No
Color range : Limited
Color primaries : BT.709
Transfer characteristics : BT.709
Matrix coefficients : BT.709

Audio #1
ID : 2
Format : AC-3
Format/Info : Audio Coding 3
Commercial name : Dolby Digital
Codec ID : A_AC3
Duration : 1 h 48 min
Bit rate mode : Constant
Bit rate : 448 kb/s
Channel(s) : 6 channels
Channel layout : L R C LFE Ls Rs
Sampling rate : 48.0 kHz
Frame rate : 31.250 FPS (1536 SPF)
Bit depth : 16 bits
Compression mode : Lossy
Delay relative to video : 24 ms
Stream size : 347 MiB (9%)
Title : Thai DVD Master
Language : Thai
Service kind : Complete Main
Default : Yes
Forced : Yes

Audio #2
ID : 3
Format : AC-3
Format/Info : Audio Coding 3
Commercial name : Dolby Digital
Codec ID : A_AC3
Duration : 1 h 48 min
Bit rate mode : Constant
Bit rate : 448 kb/s
Channel(s) : 6 channels
Channel layout : L R C LFE Ls Rs
Sampling rate : 48.0 kHz
Frame rate : 31.250 FPS (1536 SPF)
Bit depth : 16 bits
Compression mode : Lossy
Stream size : 347 MiB (9%)
Title : English
Language : English
Service kind : Complete Main
Default : No
Forced : No

Text #1
ID : 4
Format : VobSub
Muxing mode : zlib
Codec ID : S_VOBSUB
Codec ID/Info : Picture based subtitle format used on DVDs
Duration : 1 h 36 min
Bit rate : 1 737 b/s
Count of elements : 882
Stream size : 1.20 MiB (0%)
Title : Thai 480p From DVD Master
Language : Thai
Default : No
Forced : No

Text #2
ID : 5
Format : VobSub
Muxing mode : zlib
Codec ID : S_VOBSUB
Codec ID/Info : Picture based subtitle format used on DVDs
Duration : 1 h 40 min
Bit rate : 3 730 b/s
Count of elements : 884
Stream size : 2.67 MiB (0%)
Title : Thai 1080p
Language : Thai
Default : Yes
Forced : Yes

Text #3
ID : 6
Format : VobSub
Muxing mode : zlib
Codec ID : S_VOBSUB
Codec ID/Info : Picture based subtitle format used on DVDs
Duration : 1 h 40 min
Bit rate : 3 726 b/s
Count of elements : 884
Stream size : 2.67 MiB (0%)
Title : Thai 1080p Yellow
Language : Thai
Default : No
Forced : No

Text #4
ID : 7
Format : VobSub
Muxing mode : zlib
Codec ID : S_VOBSUB
Codec ID/Info : Picture based subtitle format used on DVDs
Duration : 1 h 40 min
Bit rate : 3 737 b/s
Count of elements : 884
Stream size : 2.68 MiB (0%)
Title : Thai 1080p Out
Language : Thai
Default : No
Forced : No

Text #5
ID : 8
Format : VobSub
Muxing mode : zlib
Codec ID : S_VOBSUB
Codec ID/Info : Picture based subtitle format used on DVDs
Duration : 1 h 40 min
Bit rate : 4 868 b/s
Count of elements : 884
Stream size : 3.48 MiB (0%)
Title : Thai 1080p BIG
Language : Thai
Default : No
Forced : No

Text #6
ID : 9
Format : VobSub
Muxing mode : zlib
Codec ID : S_VOBSUB
Codec ID/Info : Picture based subtitle format used on DVDs
Duration : 1 h 40 min
Bit rate : 4 884 b/s
Count of elements : 884
Stream size : 3.50 MiB (0%)
Title : Thai 1080p Out [BIG]
Language : Thai
Default : No
Forced : No

Text #7
ID : 10
Format : PGS
Muxing mode : zlib
Codec ID : S_HDMV/PGS
Codec ID/Info : Picture based subtitle format used on BDs/HD-DVDs
Duration : 1 h 40 min
Bit rate : 12.2 kb/s
Count of elements : 1768
Stream size : 8.76 MiB (0%)
Title : Thai PGS
Language : Thai
Default : No
Forced : No

Text #8
ID : 11
Format : PGS
Muxing mode : zlib
Codec ID : S_HDMV/PGS
Codec ID/Info : Picture based subtitle format used on BDs/HD-DVDs
Duration : 1 h 40 min
Bit rate : 12.6 kb/s
Count of elements : 1768
Stream size : 8.98 MiB (0%)
Title : Thai PGS Yellow
Language : Thai
Default : No
Forced : No

Text #9
ID : 12
Format : PGS
Muxing mode : zlib
Codec ID : S_HDMV/PGS
Codec ID/Info : Picture based subtitle format used on BDs/HD-DVDs
Duration : 1 h 40 min
Bit rate : 12.3 kb/s
Count of elements : 1768
Stream size : 8.83 MiB (0%)
Title : Thai PGS Out
Language : Thai
Default : No
Forced : No

Text #10
ID : 13
Format : PGS
Muxing mode : zlib
Codec ID : S_HDMV/PGS
Codec ID/Info : Picture based subtitle format used on BDs/HD-DVDs
Duration : 1 h 38 min
Bit rate : 11.2 kb/s
Count of elements : 1902
Stream size : 7.89 MiB (0%)
Title : English
Language : English
Default : No
Forced : No

Menu
00:00:00.000 : en:Chapter 1
00:08:12.701 : en:Chapter 2
00:15:35.518 : en:Chapter 3
00:24:41.438 : en:Chapter 4
00:31:50.700 : en:Chapter 5
00:38:50.620 : en:Chapter 6
00:50:11.050 : en:Chapter 7
00:55:48.679 : en:Chapter 8
01:03:51.494 : en:Chapter 9
01:13:11.679 : en:Chapter 10
01:19:19.255 : en:Chapter 11
01:28:52.410 : en:Chapter 12
01:40:35.655 : en:Chapter 13

DOWNLOAD


PART01 |||| PART02 |||| PART03 |||| PART04

PART01 |||| PART02 |||| PART03 |||| PART04

PART01 |||| PART02 |||| PART03 |||| PART04

PART01 |||| PART02 |||| PART03 |||| PART04


Leave A Reply

Your email address will not be published.

%d bloggers like this: