[MINI-HD] The Twins Effect II Blade of Kings (2004) คู่ใหญ่พายุฟัด ภาค 2 [720p] [พากย์ไทย 5.1 + เสียงจีน DTS] [บรรยายไทย] [เสียงไทย + ซับไทย] [OPENLOAD]

4

The Twins Effect II Blade of Kings (2004)

โหลดหนัง The Twins Effect II Blade of Kings (2004) คู่ใหญ่พายุฟัด ภาค 2

Chin gei bin II: Faa dou dai zin (2004) 1h 46min | Action, Adventure, Comedy | 12 August 2004 (Hong Kong) Summary: In the mythical land of Huadu, Charcoal Head, a humble boy born to rule an empire must undertake his journey to claim his throne. It is an epic action adventure combining romance, fantasy, comedy and cutting edge Hong Kong style martial artistry.
Countries: Hong Kong, ChinaLanguages: Cantonese

เรื่องย่อ The Twins Effect II Blade of Kings (2004) คู่ใหญ่พายุฟัด ภาค 2

ณ อาณาจักรโบราณแห่งฮัวดู นครแห่งบุปผา อันเป็นนครที่ถูกปกครองโดย จักรพรรดินีผู้โหดเหี้ยม (ชวี ยิง) มันเป็นดินแดนที่ซึ่ง เพศชายตกเป็นต้องตกเป็นทาสของผู้เป็นเพศหญิง และแม้ว่าจะปกครองนครบุปผาด้วยความโหดเหี้ยม แต่ทว่าเธอและ ขันทีหลวงชิวไง (แดเนียล วู) ก็มีชีวิตอยู่โดยเต็มไปด้วยความกลัวและหวาดระแวง ด้วยว่าคำทำนายของโหรหลวงที่ว่า เด็กชายผู้ต่ำต้อยคนหนึ่ง จะกลับกลายมาเป็นจักรพรรดิแห่งอาณาจักร และสืบทอดตำแหน่งจักรพรรดิไปเป็นระยะเวลายาวนาน และเพื่อเป็นการป้องกันเรื่องเลวร้าย ที่จะเกิดขึ้นตามคำทำนายดังกล่าว เธอส่งทหารจำนวนมาก ออกไปฆ่าเด็กน้อยทุกคนที่มีลักษณะดังคำทำนาย..

Complete name : [MINI-HD]_The.Twins.Effect.II.Blade.of.Kings.2004.720p.BrRip.DTS.x264.One2loadup.com.mkv
Format : Matroska
Format version : Version 2
File size : 4.64 GiB
Duration : 1 h 45 min
Overall bit rate : 6 262 kb/s
Movie name : [MINI-HD]_The.Twins.Effect.II.Blade.of.Kings.2004.720p.BrRip.DTS.x264.One2loadup.com
Encoded date : UTC 2013-05-16 00:52:02
Writing application : mkvmerge v5.5.0 (‘Healer’) built on Apr 6 2012 21:43:24
Writing library : libebml v1.2.3 + libmatroska v1.3.0

Video
ID : 1
Format : AVC
Format/Info : Advanced Video Codec
Format profile : [email protected]
Format settings : CABAC / 8 Ref Frames
Format settings, CABAC : Yes
Format settings, ReFrames : 8 frames
Muxing mode : Header stripping
Codec ID : V_MPEG4/ISO/AVC
Duration : 1 h 45 min
Bit rate : 4 370 kb/s
Width : 1 280 pixels
Height : 672 pixels
Display aspect ratio : 1.905
Frame rate mode : Constant
Frame rate : 23.976 (24000/1001) FPS
Color space : YUV
Chroma subsampling : 4:2:0
Bit depth : 8 bits
Scan type : Progressive
Bits/(Pixel*Frame) : 0.212
Stream size : 3.14 GiB (68%)
Title : [MINI-HD]_The.Twins.Effect.II.Blade.of.Kings.2004.720p.BrRip.DTS.x264.One2loadup.com
Writing library : x264 core 66 r1093M 1df50b9
Encoding settings : cabac=1 / ref=8 / deblock=1:-3:-3 / analyse=0x3:0x113 / me=tesa / subme=9 / psy_rd=0.8:0.0 / mixed_ref=1 / me_range=24 / chroma_me=1 / trellis=2 / 8x8dct=1 / cqm=0 / deadzone=21,11 / chroma_qp_offset=-4 / threads=12 / nr=0 / decimate=1 / mbaff=0 / bframes=6 / b_pyramid=1 / b_adapt=2 / b_bias=0 / direct=1 / wpredb=1 / keyint=250 / keyint_min=25 / scenecut=40(pre) / rc=2pass / bitrate=4370 / ratetol=1.0 / qcomp=0.60 / qpmin=8 / qpmax=51 / qpstep=4 / cplxblur=20.0 / qblur=0.5 / ip_ratio=1.40 / pb_ratio=1.20 / aq=1:0.80
Language : Chinese
Default : Yes
Forced : No

Audio #1
ID : 2
Format : DTS
Format/Info : Digital Theater Systems
Muxing mode : Header stripping
Codec ID : A_DTS
Duration : 1 h 45 min
Bit rate mode : Constant
Bit rate : 1 509 kb/s
Channel(s) : 6 channels
Channel layout : C L R Ls Rs LFE
Sampling rate : 48.0 kHz
Frame rate : 93.750 FPS (512 SPF)
Bit depth : 24 bits
Compression mode : Lossy
Delay relative to video : 5 ms
Stream size : 1.12 GiB (24%)
Title : DTS
Language : Chinese
Default : No
Forced : No

Audio #2
ID : 3
Format : AC-3
Format/Info : Audio Coding 3
Commercial name : Dolby Digital
Muxing mode : Header stripping
Codec ID : A_AC3
Duration : 1 h 45 min
Bit rate mode : Constant
Bit rate : 384 kb/s
Channel(s) : 6 channels
Channel layout : L R C LFE Ls Rs
Sampling rate : 48.0 kHz
Frame rate : 31.250 FPS (1536 SPF)
Bit depth : 16 bits
Compression mode : Lossy
Stream size : 291 MiB (6%)
Title : 5.1
Language : Thai
Service kind : Complete Main
Default : Yes
Forced : No

Text
ID : 4
Format : VobSub
Muxing mode : zlib
Codec ID : S_VOBSUB
Codec ID/Info : Picture based subtitle format used on DVDs
Language : Thai
Default : Yes
Forced : No

DOWNLOAD


PART01 |||| PART02 |||| PART03 |||| PART04 |||| PART05

PART01 |||| PART02 |||| PART03 |||| PART04 |||| PART05

PART01 |||| PART02 |||| PART03 |||| PART04 |||| PART05

PART01 |||| PART02 |||| PART03 |||| PART04 |||| PART05


4 Comments
  1. GPraew says

    ขอบคุณมากๆค่ะ

  2. Boydm Lion
    Boydm Lion says

    ขอบคุณครับบ
    ขอภาค 1 ด้วยซิครับแอด

    1. Admin
      Admin says

      ตอนนี้ยังไม่เปิดรับขอหนังนะฮ๊ะ คิวหนังที่รอลงมี1700 กว่าคิว แนะนำขอตอนเปิดให้ขอแล้วกันเด้อ

      1. Boydm Lion
        Boydm Lion says

        อะเครคับ

Leave A Reply

Your email address will not be published.