[MINI-HD] The Truman Show (1998) ชีวิตมหัศจรรย์ ทรูแมน โชว์ [1080p] [พากย์ไทย 2.0 + เสียงอังกฤษ 5.1] [บรรยายไทย] [WEB-DL.H.264] [Modified] [เสียงไทย + ซับไทยฝัง]

0

โหลดหนัง  The Truman Show (1998) ชีวิตมหัศจรรย์ ทรูแมน โชว์

เรื่องย่อ The Truman Show (1998) ชีวิตมหัศจรรย์ ทรูแมน โชว์

ทรูแมน เบอแบงค์ (จิม แคร์รีย์) รู้สึกเหมือนมีใครจ้องเขาอยู่ ทุกๆวินาทีนับตั้งแต่เกิด จนอายุเกือบ 30 ปี เขาเป็นดาราดังของ Truman Show ละครชีวิตที่มีประวัติการฉายต่อเนื่องยาวนานที่สุดทุกๆคนที่อยู่รอบตัวเขา และทุกคนที่เขาพบหรือรู้จัก ล้วนแต่เป็นนักแสดงทั้งสิ้น ทุกช่วงชีวิตของเขาถูกจับตามองจากกล้องทีวี ขอต้อนรับเข้าสู่ “The Truman Show” รายการฮิตอันดับหนึ่งของทีวีที่มีเรตติ้งสูงสุดในประวัติศาสตร์ ด้วยคนทั้งโลกเฝ้าติดตามชมชีวิตของทรูแมน ในแง่ความกลัวในจิตใจและความกระวนกระวายใจ ชายหนุ่มผู้น่าสงสารที่ไม่เพียงเป็นเหยื่อของสังคมมนุษย์ และโลกความก้าวหน้าทางอีเล็คโทนิคเท่านั้น เขาต้องติดอยู่ในกับดักชีวิตของตนเอง กับโลกไม่เป็นจริงตลอดช่วงเกือบ 30 ปี ในชีวิต

Complete name : [MINI-HD]_The.Truman.Show.1998.1080p.One2loadup.com.mkv
Format : Matroska
Format version : Version 4
File size : 3.77 GiB
Duration : 1 h 42 min
Overall bit rate mode : Variable
Overall bit rate : 5 237 kb/s
Encoded date : UTC 2018-07-04 18:09:54
Writing application : mkvmerge v24.0.0 (‘Beyond The Pale’) 64-bit
Writing library : libebml v1.3.6 + libmatroska v1.4.9

Video
ID : 1
Format : AVC
Format/Info : Advanced Video Codec
Format profile : [email protected]
Format settings : CABAC / 1 Ref Frames
Format settings, CABAC : Yes
Format settings, ReFrames : 1 frame
Format settings, GOP : M=1, N=60
Codec ID : V_MPEG4/ISO/AVC
Duration : 1 h 42 min
Bit rate : 3 396 kb/s
Width : 1 920 pixels
Height : 1 080 pixels
Display aspect ratio : 16:9
Frame rate mode : Constant
Frame rate : 29.970 (30000/1001) FPS
Color space : YUV
Chroma subsampling : 4:2:0
Bit depth : 8 bits
Scan type : Progressive
Bits/(Pixel*Frame) : 0.055
Stream size : 2.44 GiB (65%)
Default : Yes
Forced : No
Color range : Limited
Color primaries : BT.709
Transfer characteristics : BT.709
Matrix coefficients : BT.709

Audio #1
ID : 2
Format : FLAC
Format/Info : Free Lossless Audio Codec
Codec ID : A_FLAC
Duration : 1 h 42 min
Bit rate mode : Variable
Bit rate : 912 kb/s
Channel(s) : 2 channels
Channel layout : L R
Sampling rate : 44.1 kHz
Frame rate : 9.570 FPS (4608 SPF)
Bit depth : 24 bits
Compression mode : Lossless
Stream size : 672 MiB (17%)
Language : Thai
Default : Yes
Forced : No

Audio #2
ID : 3
Format : FLAC
Format/Info : Free Lossless Audio Codec
Codec ID : A_FLAC
Duration : 1 h 42 min
Bit rate mode : Variable
Bit rate : 927 kb/s
Channel(s) : 2 channels
Channel layout : L R
Sampling rate : 44.1 kHz
Frame rate : 9.570 FPS (4608 SPF)
Bit depth : 24 bits
Compression mode : Lossless
Stream size : 683 MiB (18%)
Language : English
Default : No
Forced : No

DOWNLOAD


PART01 |||| PART02 |||| PART03 |||| PART04

PART01 |||| PART02 |||| PART03 |||| PART04

PART01 |||| PART02 |||| PART03 |||| PART04

PART01 |||| PART02 |||| PART03 |||| PART04


Leave A Reply

Your email address will not be published.

%d bloggers like this: