[MINI-HD] The Marine 2 (2009) เดอะ มารีน คนคลั่งล่าทะลุสุดขีดนรก ภาค 2 [1080p] [พากย์ไทย 5.1 + เสียงอังกฤษ 5.1] [บรรยายไทย] [เสียงไทย + ซับไทย] [ONE2UP]

0

The Marine 2 (2009)

โหลดหนัง The Marine 2 (2009) เดอะ มารีน คนคลั่งล่าทะลุสุดขีดนรก ภาค 2

The Marine 2 (2009) 1h 35min | Action, Drama, Thriller | Video 26 January 2010 Summary: While on vacation, an American Marine sniper takes on local rebels who have seized control of the island hotel resort where he and his wife, who is now a hostage for ransom, have been staying.
Countries: USALanguages: English

เรื่องย่อ The Marine 2 (2009) เดอะ มารีน คนคลั่งล่าทะลุสุดขีดนรก ภาค 2

เรื่องราว เหตุเกิด ณ รีสอร์ทแห่งหนึ่งที่สวยงาม นาวิกโยธิน โจ ลินวู้ด และโรบินกำลังสนุกสนานอยู่ในปาร์ตี้ แต่แล้วสิ่งไม่คาดฝันได้เกิดขึ้น เมื่อผู้ก่อการร้ายบุกเข้ามาแล้วจับตัวประกันไปเพื่อต่อรองเงื่อนไข โจ-หนึ่งเดียวคนนี้จึงต้องใช้ทักษะฝีมือเชิงรบที่ฝึกฝนม าอย่างเชี่ยวชาญ ต่อสู้กับคนร้าย ช่วยตัวประกันรวมถึงป้องกันไม่ให้เกิดสงครามระหว่างป ระเทศอีกด้วย

Complete name : [MINI-HD]_2.The.Marine.2009.1080p.BrRip.AC3.x264.One2loadup.com.mkv
Format : Matroska
Format version : Version 2
File size : 1.93 GiB
Duration : 1 h 35 min
Overall bit rate : 2 896 kb/s
Movie name : [MINI-HD]_2.The.Marine.2009.1080p.BrRip.AC3.x264.One2loadup.com
Encoded date : UTC 2013-08-08 16:43:29
Writing application : mkvmerge v4.0.0 (‘The Stars were mine’) built on Jun 5 2010 17:44:09
Writing library : libebml v1.0.0 + libmatroska v1.0.0

Video
ID : 1
Format : AVC
Format/Info : Advanced Video Codec
Format profile : [email protected]
Format settings : 1 Ref Frames
Format settings, CABAC : No
Format settings, ReFrames : 1 frame
Codec ID : V_MPEG4/ISO/AVC
Duration : 1 h 35 min
Bit rate : 2 000 kb/s
Width : 1 920 pixels
Height : 1 080 pixels
Display aspect ratio : 16:9
Frame rate mode : Constant
Frame rate : 23.976 (23976/1000) FPS
Color space : YUV
Chroma subsampling : 4:2:0
Bit depth : 8 bits
Scan type : Progressive
Bits/(Pixel*Frame) : 0.040
Stream size : 1.29 GiB (67%)
Title : [MINI-HD]_2.The.Marine.2009.1080p.BrRip.AC3.x264.One2loadup.com
Writing library : x264 core 80 r1378+57 6f6b50a
Encoding settings : cabac=0 / ref=1 / deblock=1:0:0 / analyse=0x3:0x113 / me=hex / subme=7 / psy=1 / psy_rd=1.0:0.0 / mixed_ref=0 / me_range=16 / chroma_me=1 / trellis=0 / 8x8dct=1 / cqm=0 / deadzone=21,11 / fast_pskip=1 / chroma_qp_offset=-2 / threads=3 / sliced_threads=0 / nr=0 / decimate=1 / mbaff=0 / constrained_intra=0 / bframes=0 / wpredp=2 / keyint=250 / keyint_min=25 / scenecut=40 / rc_lookahead=40 / rc=abr / mbtree=1 / bitrate=2000 / ratetol=1.0 / qcomp=0.60 / qpmin=10 / qpmax=51 / qpstep=4 / ip_ratio=1.40 / aq=1:1.00
Default : Yes
Forced : No

Audio #1
ID : 2
Format : AC-3
Format/Info : Audio Coding 3
Commercial name : Dolby Digital
Codec ID : A_AC3
Duration : 1 h 35 min
Bit rate mode : Constant
Bit rate : 448 kb/s
Channel(s) : 6 channels
Channel layout : L R C LFE Ls Rs
Sampling rate : 48.0 kHz
Frame rate : 31.250 FPS (1536 SPF)
Bit depth : 16 bits
Compression mode : Lossy
Delay relative to video : 1 s 0 ms
Stream size : 305 MiB (15%)
Language : English
Service kind : Complete Main
Default : Yes
Forced : No

Audio #2
ID : 3
Format : AC-3
Format/Info : Audio Coding 3
Commercial name : Dolby Digital
Codec ID : A_AC3
Duration : 1 h 35 min
Bit rate mode : Constant
Bit rate : 448 kb/s
Channel(s) : 6 channels
Channel layout : L R C LFE Ls Rs
Sampling rate : 48.0 kHz
Frame rate : 31.250 FPS (1536 SPF)
Bit depth : 16 bits
Compression mode : Lossy
Delay relative to video : 1 s 0 ms
Stream size : 305 MiB (15%)
Language : Thai
Service kind : Complete Main
Default : No
Forced : No

Text
ID : 4
Format : VobSub
Muxing mode : zlib
Codec ID : S_VOBSUB
Codec ID/Info : Picture based subtitle format used on DVDs
Language : Thai
Default : Yes
Forced : No

 

DOWNLOAD


PART01 |||| PART02

PART01 |||| PART02

PART01 |||| PART02

PART01 |||| PART02


Leave A Reply

Your email address will not be published.

%d bloggers like this: