[MINI-HD] The Last Stand (2013) นายอำเภอคนพันธุ์เหล็ก [1080p] [พากย์ไทย 5.1 + เสียงอังกฤษ 5.1] [บรรยายไทย + อังกฤษ] [เสียงไทย + ซับไทย] [PANDAFILE]

0

The Last Stand (2013)

โหลดหนัง The Last Stand (2013) นายอำเภอคนพันธุ์เหล็ก

The Last Stand (2013) 1h 47min | Action, Thriller, Western | 31 January 2013 (Germany) Summary: The leader of a drug cartel busts out of a courthouse and speeds to the Mexican border, where the only thing in his path is a sheriff and his inexperienced staff.
Countries: USALanguages: English

เรื่องย่อ The Last Stand (2013) นายอำเภอคนพันธุ์เหล็ก

เรื่องราวของ เรย์ โอเว่นส์ (อาร์โนลด์ ชวาร์เซเน็กเกอร์) เจ้าหน้าที่ตารวจที่เคยทาผิดพลาดในอดีตเขารู้สึกผิดและตัดสินใจย้ายออกจากแอลเอเพื่อเริ่มต้นชีวิตใหม่ด้วยการเป็นนายอาเภอในเมืองโซเมอร์ตัน เมืองเล็กๆที่อยู่แถบชายแดนแต่ในขณะที่ทุกๆอย่างในชีวิตของเรย์ดูเหมือนจะไปได้ดี ความสงบสุขก็ถูกทาลายลงอีกครั้งเมื่อกาเบรียล คอร์เตส หัวหน้าแก๊งค้ายารายเบิ้มหลบหนีออกมาจากคุกพร้อมตัวประกันและก็กาลังมุ่งหน้ามายังเมืองโซเมอร์ตัน ที่เป็นทางผ่านในการหลบหนีข้ามประเทศเรย์ จึงตัดสินใจลุกขึ้นมาเพื่อทำหน้าที่เป็นปราการด่านสุดท้ายให้จงได้!!!

Complete name : [MINI-HD]_The.Last.Stand.2013.1080p.BrRip.AC3.x264.One2loadup.com.mkv
Format : Matroska
Format version : Version 4
File size : 4.09 GiB
Duration : 1 h 47 min
Overall bit rate : 5 456 kb/s
Movie name : [MINI-HD]_The.Last.Stand.2013.1080p.BrRip.AC3.x264.One2loadup.com
Encoded date : UTC 2017-08-29 21:28:45
Writing application : mkvmerge v9.7.1 (‘Pandemonium’) 64bit
Writing library : libebml v1.3.4 + libmatroska v1.4.5
Cover : Yes
Attachments : cover.jpg

Video
ID : 1
Format : AVC
Format/Info : Advanced Video Codec
Format profile : [email protected]
Format settings : CABAC / 4 Ref Frames
Format settings, CABAC : Yes
Format settings, ReFrames : 4 frames
Codec ID : V_MPEG4/ISO/AVC
Duration : 1 h 47 min
Bit rate : 4 498 kb/s
Width : 1 920 pixels
Height : 800 pixels
Display aspect ratio : 2.40:1
Frame rate mode : Constant
Frame rate : 23.976 (24000/1001) FPS
Color space : YUV
Chroma subsampling : 4:2:0
Bit depth : 8 bits
Scan type : Progressive
Bits/(Pixel*Frame) : 0.122
Stream size : 3.37 GiB (82%)
Title : [MINI-HD]_The.Last.Stand.2013.1080p.BrRip.AC3.x264.One2loadup.com
Writing library : x264 core 130 r2273 b3065e6
Encoding settings : cabac=1 / ref=3 / deblock=1:0:0 / analyse=0x3:0x113 / me=hex / subme=7 / psy=1 / psy_rd=1.00:0.00 / mixed_ref=1 / me_range=16 / chroma_me=1 / trellis=1 / 8x8dct=1 / cqm=0 / deadzone=21,11 / fast_pskip=1 / chroma_qp_offset=-2 / threads=24 / lookahead_threads=4 / sliced_threads=0 / nr=0 / decimate=1 / interlaced=0 / bluray_compat=0 / constrained_intra=0 / bframes=3 / b_pyramid=2 / b_adapt=1 / b_bias=0 / direct=1 / weightb=1 / open_gop=0 / weightp=2 / keyint=240 / keyint_min=23 / scenecut=40 / intra_refresh=0 / rc_lookahead=40 / rc=2pass / mbtree=1 / bitrate=4498 / ratetol=1.0 / qcomp=0.60 / qpmin=0 / qpmax=69 / qpstep=4 / cplxblur=20.0 / qblur=0.5 / ip_ratio=1.40 / aq=1:1.00
Language : English
Default : No
Forced : No

Audio #1
ID : 2
Format : AC-3
Format/Info : Audio Coding 3
Commercial name : Dolby Digital
Codec ID : A_AC3
Duration : 1 h 47 min
Bit rate mode : Constant
Bit rate : 448 kb/s
Channel(s) : 6 channels
Channel layout : L R C LFE Ls Rs
Sampling rate : 48.0 kHz
Frame rate : 31.250 FPS (1536 SPF)
Bit depth : 16 bits
Compression mode : Lossy
Stream size : 344 MiB (8%)
Title : Eng AC3 5.1
Language : English
Service kind : Complete Main
Default : No
Forced : No

Audio #2
ID : 3
Format : AC-3
Format/Info : Audio Coding 3
Commercial name : Dolby Digital
Codec ID : A_AC3
Duration : 1 h 47 min
Bit rate mode : Constant
Bit rate : 448 kb/s
Channel(s) : 6 channels
Channel layout : L R C LFE Ls Rs
Sampling rate : 48.0 kHz
Frame rate : 31.250 FPS (1536 SPF)
Bit depth : 16 bits
Compression mode : Lossy
Stream size : 343 MiB (8%)
Title : Thai AC3 5.1
Language : Thai
Service kind : Complete Main
Default : Yes
Forced : Yes

Text #1
ID : 4
Format : UTF-8
Codec ID : S_TEXT/UTF8
Codec ID/Info : UTF-8 Plain Text
Duration : 1 h 38 min
Bit rate : 61 b/s
Count of elements : 1381
Stream size : 44.2 KiB (0%)
Title : ENG SRT
Language : English
Default : No
Forced : No

Text #2
ID : 5
Format : VobSub
Muxing mode : zlib
Codec ID : S_VOBSUB
Codec ID/Info : Picture based subtitle format used on DVDs
Duration : 1 h 38 min
Bit rate : 1 314 b/s
Count of elements : 1096
Stream size : 950 KiB (0%)
Title : Thai 480p
Language : Thai
Default : Yes
Forced : Yes

Text #3
ID : 6
Format : VobSub
Muxing mode : zlib
Codec ID : S_VOBSUB
Codec ID/Info : Picture based subtitle format used on DVDs
Duration : 1 h 38 min
Bit rate : 3 797 b/s
Count of elements : 1096
Stream size : 2.68 MiB (0%)
Title : Thai 1080p Angsana
Language : Thai
Default : No
Forced : Yes

Text #4
ID : 7
Format : VobSub
Muxing mode : zlib
Codec ID : S_VOBSUB
Codec ID/Info : Picture based subtitle format used on DVDs
Duration : 1 h 38 min
Bit rate : 3 797 b/s
Count of elements : 1096
Stream size : 2.68 MiB (0%)
Title : Thai 1080p Angsana LOW
Language : Thai
Default : No
Forced : Yes

Text #5
ID : 8
Format : PGS
Muxing mode : zlib
Codec ID : S_HDMV/PGS
Codec ID/Info : Picture based subtitle format used on BDs/HD-DVDs
Duration : 1 h 38 min
Bit rate : 12.7 kb/s
Count of elements : 2192
Stream size : 8.99 MiB (0%)
Title : Thai PGS Angsana
Language : Thai
Default : No
Forced : Yes

Text #6
ID : 9
Format : PGS
Muxing mode : zlib
Codec ID : S_HDMV/PGS
Codec ID/Info : Picture based subtitle format used on BDs/HD-DVDs
Duration : 1 h 38 min
Bit rate : 12.7 kb/s
Count of elements : 2192
Stream size : 8.99 MiB (0%)
Title : Thai PGS Angsana LOW
Language : Thai
Default : No
Forced : Yes

Text #7
ID : 10
Format : VobSub
Muxing mode : zlib
Codec ID : S_VOBSUB
Codec ID/Info : Picture based subtitle format used on DVDs
Duration : 1 h 38 min
Bit rate : 3 613 b/s
Count of elements : 1096
Stream size : 2.55 MiB (0%)
Title : Thai 1080p Th Sarabun
Language : Thai
Default : No
Forced : Yes

Text #8
ID : 11
Format : VobSub
Muxing mode : zlib
Codec ID : S_VOBSUB
Codec ID/Info : Picture based subtitle format used on DVDs
Duration : 1 h 38 min
Bit rate : 3 613 b/s
Count of elements : 1096
Stream size : 2.55 MiB (0%)
Title : Thai 1080p Th Sarabun LOW
Language : Thai
Default : No
Forced : Yes

Text #9
ID : 12
Format : PGS
Muxing mode : zlib
Codec ID : S_HDMV/PGS
Codec ID/Info : Picture based subtitle format used on BDs/HD-DVDs
Duration : 1 h 38 min
Bit rate : 12.4 kb/s
Count of elements : 2192
Stream size : 8.74 MiB (0%)
Title : Thai PGS Th Sarabun
Language : Thai
Default : No
Forced : Yes

Text #10
ID : 13
Format : PGS
Muxing mode : zlib
Codec ID : S_HDMV/PGS
Codec ID/Info : Picture based subtitle format used on BDs/HD-DVDs
Duration : 1 h 38 min
Bit rate : 12.4 kb/s
Count of elements : 2192
Stream size : 8.74 MiB (0%)
Title : Thai PGS Th Sarabun LOW
Language : Thai
Default : No
Forced : Yes

DOWNLOAD


PART01 |||| PART02 |||| PART03 |||| PART04 |||| PART05

PART01 |||| PART02 |||| PART03 |||| PART04 |||| PART05

PART01 |||| PART02 |||| PART03 |||| PART04 |||| PART05

PART01 |||| PART02 |||| PART03 |||| PART04 |||| PART05


Leave A Reply

Your email address will not be published.

%d bloggers like this: