โหลดหนัง HD MINI-HD SUPER-HQ Full-HD 1080p VIP Master Zoom ซูม หนังใหม่ ออนไลน์ มาสเตอร์ ไทย จีน ฝรั่ง การ์ตูน

[MINI-HD] The Holy Man (2005) หลวงพี่เท่ง [1080p] [พากย์ไทย 2.0] [หนังไทยเก่า] [DVDRip] [เสียงไทย] [OPENLOAD]

โหลดหนัง  The Holy Man (2005) หลวงพี่เท่ง

เรื่องย่อ The Holy Man (2005) หลวงพี่เท่ง

หลวงพี่เท่ง พระหนุ่มเจ้าปัญญา ที่ย้ายมาจำวัดโทรมๆ ในหมู่บ้านแห่งหนึ่ง ขณะที่ชาวบ้านเสื่อมศรัทธา ในศาสนาและหลงงมงายในความเชื่อทรงเจ้าเข้าผี ที่อาศรมของท่านเพิ่มเป็นที่พึ่งทางใจ และการขอฝนในฤดูที่แห้งแล้ง หลวงพี่เท่งจึงตั้งปณิธานกับใจตนที่จะพัฒนาจิตใจของชาวบ้าน ไปในทางที่ถูกต้อง โดยมีสองลูกศิษย์สุดเพี้ยนคอยช่วยเหลือ มัคฑายคส่ง ชายวัยกลางคนที่อยู่กับวัดมาตั้งแต่เด็ก แต่กลับกลัวผีขึ้นสมอง เจ้าเพี้ยนเด็กหนุ่มหน้าตาดี ท่าทางเพี้ยนหลงรักพะเนียงสาวเจ้าสุดหัวใจ มักแอบมองพะเนียงเวลาทรงเจ้าเป็นประจำ ถึงแม้ว่าทุกครั้งที่แอบมองพะเนียง เพี้ยนจะถูกทำร้ายกลับมาทุกที อาศรมของท่านเพิ่ม เป็นอาศรมที่เปิดขึ้นเพื่อเอาเงินโดยวิธีทรงเจ้า โดยให้พะเนียงลูกสาวคนสวย ทำหน้าที่เป็นคนเจ้าเข้าทรง พร้อมทั้งพี่หมึก ลูกน้องตัวแสบที่ร่วมขบวนการหลอกเงินชาวบ้าน เมื่อหลวงพี่เท่งเข้ามาสร้างความเชื่อที่ถูกต้อง ชาวบ้านเริ่มศรัทธา อาศรมรายได้ลดน้อยลง ท่านเพิ่มมีอคติและเป็นไม้เบื่อไม้เมากับหลวงพี่เท่ง จึงพยายามกำจัดหลวงพี่เท่ง โดยร่วมมือกับนักพัฒนาตุ๋ย ว่าที่ผู้สมัคร อบต. ชายสองหน้าใช้ท่านเพิ่มเป็นหัวคะแนนในการหาเสียง แลกกับความร่วมมือในการกำจัดหลวงพี่เท่ง โดยการปล่อยข่าว และส่งสมุนไปทำร้ายคนที่เชื่อพระมากกว่าเจ้าพ่อในอาศรม เหตุการณ์จะเป็นอย่างไรต่อไป ติดตามได้ใน หลวงพี่เท่ง

Complete name : [MINI-HD]_The.Holy.Man.2005.1080p.A.F2.0.One2loadup.com.mkv
Format : Matroska
Format version : Version 4
File size : 3.70 GiB
Duration : 1 h 31 min
Overall bit rate mode : Variable
Overall bit rate : 5 766 kb/s
Encoded date : UTC 2018-07-26 17:01:09
Writing application : mkvmerge v25.0.0 (‘Prog Noir’) 64-bit
Writing library : libebml v1.3.6 + libmatroska v1.4.9

Video
ID : 1
Format : AVC
Format/Info : Advanced Video Codec
Format profile : [email protected]
Format settings : CABAC / 1 Ref Frames
Format settings, CABAC : Yes
Format settings, ReFrames : 1 frame
Codec ID : V_MPEG4/ISO/AVC
Duration : 1 h 31 min
Bit rate mode : Variable
Bit rate : 4 647 kb/s
Maximum bit rate : 2 000 kb/s
Width : 1 920 pixels
Height : 1 080 pixels
Display aspect ratio : 16:9
Frame rate mode : Constant
Frame rate : 25.000 FPS
Color space : YUV
Chroma subsampling : 4:2:0
Bit depth : 8 bits
Scan type : Progressive
Bits/(Pixel*Frame) : 0.090
Stream size : 2.98 GiB (81%)
Language : Thai
Default : Yes
Forced : No

Audio
ID : 2
Format : FLAC
Format/Info : Free Lossless Audio Codec
Codec ID : A_FLAC
Duration : 1 h 31 min
Bit rate mode : Variable
Bit rate : 1 117 kb/s
Channel(s) : 2 channels
Channel layout : L R
Sampling rate : 44.1 kHz
Frame rate : 9.570 FPS (4608 SPF)
Bit depth : 24 bits
Compression mode : Lossless
Stream size : 734 MiB (19%)
Language : Thai
Default : Yes
Forced : No

DOWNLOAD


PART01 |||| PART02 |||| PART03 |||| PART04

PART01 |||| PART02 |||| PART03 |||| PART04

PART01 |||| PART02 |||| PART03 |||| PART04

PART01 |||| PART02 |||| PART03 |||| PART04


Leave A Reply

Your email address will not be published.

%d bloggers like this: