[MINI-HD] The Day the Earth Stood Still (2008) วันพิฆาตสะกดโลก [1080p] [พากษ์ไทย 5.1 + เสียงอังกฤษ DTS] [บรรยายไทย + อังกฤษ] [เสียงไทย + ซับไทย] [OPENLOAD]

0

The Day the Earth Stood Still (2008) วันพิฆาตสะกดโลก

โหลดหนัง The Day the Earth Stood Still (2008) วันพิฆาตสะกดโลก

The Day the Earth Stood Still (2008) 1h 44min | Drama, Sci-Fi, Thriller | 11 December 2008 (Netherlands) Summary: A remake of the 1951 classic science fiction film about an alien visitor and his giant robot counterpart who visit Earth.
Countries: USA, CanadaLanguages: English, Mandarin

เรื่องย่อ The Day the Earth Stood Still (2008) วันพิฆาตสะกดโลก

ด๊อกเตอร์เฮเลน เบ็นสัน (เจนนิเฟอร์ คอลเนลลี่) นักวิทยาศาสตร์สาวชื่อดังเผชิญหน้าตัวต่อตัวกับมนุษย์ต่างดาวชื่อคลาทู (คีอานู รีฟ) ที่เดินทางข้ามจักรวาลมาเพื่อเตือนว่าโลกกำลังจะมีภัยมาเยือนในวันพิฆาตสะกดโลกเมื่อเฮเลนไม่อาจต้านทานกองกำลังที่มุ่งจับตัวมนุษย์ต่างดาวเพื่อไปเค้นหาความจริงได้อีกทั้งไม่อาจตอบคำถามของเขาที่พยายามเฟ้นหาตัวผู้นำโลกได้เธอและเจค๊อบ (เจเด้น สมิธ) บุตรชายที่เข้ากับเธอได้ไม่ค่อยดีนักก็พบว่า คลาทู ที่อ้างว่าเป็น มิตรต่อโลกตนนี้ อาจจะนำมาซึ่งภารกิจพิฆาตโลกด้วยเฮเลนต้องหาทางชักจูงใจมนุษย์ต่างดาวที่ถูกส่งมาเพื่อทำลายล้างโลกใบนี้ให้ได้ว่ามนุษยชาติมีคุณค่าควรแก่การละเว้นให้ดำรงอยู่ต่อไปแต่กว่าเธอจะทำสำเร็จ มันอาจจะสายเกินไปแล้วก็ได้เพราะกระบวนการพิฆาตโลกเริ่มต้นขึ้นแล้ว

Complete name : [MINI-HD]_The.Day.the.Earth.Stood.Still.2008.1080p.BluRay.DTS.x264.One2loadup.com.mkv
Format : Matroska
Format version : Version 4
File size : 3.61 GiB
Duration : 1 h 43 min
Overall bit rate : 4 989 kb/s
Movie name : [MINI-HD]_The.Day.the.Earth.Stood.Still.2008.1080p.BluRay.DTS.x264.One2loadup.com
Encoded date : UTC 2015-01-29 08:44:56
Writing application : mkvmerge v7.2.0 (‘On Every Street’) 64bit built on Sep 13 2014 15:52:10
Writing library : libebml v1.3.0 + libmatroska v1.4.1
Cover : Yes
Attachments : cover_land.png / small_cover_land.png / cover.png / small_cover.png

Video
ID : 1
Format : AVC
Format/Info : Advanced Video Codec
Format profile : [email protected]
Format settings : CABAC / 5 Ref Frames
Format settings, CABAC : Yes
Format settings, ReFrames : 5 frames
Codec ID : V_MPEG4/ISO/AVC
Duration : 1 h 43 min
Bit rate : 3 599 kb/s
Width : 1 920 pixels
Height : 816 pixels
Display aspect ratio : 2.35:1
Frame rate mode : Constant
Frame rate : 23.976 (24000/1001) FPS
Color space : YUV
Chroma subsampling : 4:2:0
Bit depth : 8 bits
Scan type : Progressive
Bits/(Pixel*Frame) : 0.096
Stream size : 2.60 GiB (72%)
Title : [MINI-HD]_The.Day.the.Earth.Stood.Still.2008.1080p.BluRay.DTS.x264.One2loadup.com
Writing library : x264 core 130 r2273 b3065e6
Encoding settings : cabac=1 / ref=5 / deblock=1:-1:-1 / analyse=0x3:0x113 / me=umh / subme=9 / psy=1 / psy_rd=1.00:0.00 / mixed_ref=1 / me_range=16 / chroma_me=1 / trellis=1 / 8x8dct=1 / cqm=0 / deadzone=21,11 / fast_pskip=1 / chroma_qp_offset=-2 / threads=6 / lookahead_threads=1 / sliced_threads=0 / nr=0 / decimate=1 / interlaced=0 / bluray_compat=0 / constrained_intra=0 / bframes=3 / b_pyramid=2 / b_adapt=1 / b_bias=0 / direct=1 / weightb=1 / open_gop=0 / weightp=2 / keyint=240 / keyint_min=24 / scenecut=40 / intra_refresh=0 / rc_lookahead=40 / rc=2pass / mbtree=1 / bitrate=3599 / ratetol=1.0 / qcomp=0.60 / qpmin=0 / qpmax=69 / qpstep=4 / cplxblur=20.0 / qblur=0.5 / ip_ratio=1.40 / aq=1:1.00
Language : English
Default : Yes
Forced : No
Color range : Limited
Color primaries : BT.709
Transfer characteristics : BT.709
Matrix coefficients : BT.709

Audio #1
ID : 2
Format : AC-3
Format/Info : Audio Coding 3
Commercial name : Dolby Digital
Codec ID : A_AC3
Duration : 1 h 43 min
Bit rate mode : Constant
Bit rate : 448 kb/s
Channel(s) : 6 channels
Channel layout : L R C LFE Ls Rs
Sampling rate : 48.0 kHz
Frame rate : 31.250 FPS (1536 SPF)
Bit depth : 16 bits
Compression mode : Lossy
Stream size : 332 MiB (9%)
Title : AC3 BDMASTER
Language : Thai
Service kind : Complete Main
Default : Yes
Forced : Yes

Audio #2
ID : 3
Format : DTS
Format/Info : Digital Theater Systems
Codec ID : A_DTS
Duration : 1 h 43 min
Bit rate mode : Constant
Bit rate : 755 kb/s
Channel(s) : 6 channels
Channel layout : C L R Ls Rs LFE
Sampling rate : 48.0 kHz
Frame rate : 93.750 FPS (512 SPF)
Bit depth : 24 bits
Compression mode : Lossy
Stream size : 559 MiB (15%)
Title : DTS 768
Language : English
Default : No
Forced : No

Audio #3
ID : 4
Format : AAC LC
Format/Info : Advanced Audio Codec Low Complexity
Codec ID : A_AAC-2
Duration : 1 h 43 min
Bit rate : 96.0 kb/s
Channel(s) : 2 channels
Channel layout : L R
Sampling rate : 48.0 kHz
Frame rate : 46.875 FPS (1024 SPF)
Compression mode : Lossy
Stream size : 71.1 MiB (2%)
Title : AAC
Language : English
Default : No
Forced : No

Text #1
ID : 5
Format : VobSub
Codec ID : S_VOBSUB
Codec ID/Info : Picture based subtitle format used on DVDs
Duration : 1 h 36 min
Bit rate : 5 685 b/s
Count of elements : 967
Stream size : 3.94 MiB (0%)
Title : 1080P
Language : Thai
Default : Yes
Forced : Yes

Text #2
ID : 6
Format : VobSub
Codec ID : S_VOBSUB
Codec ID/Info : Picture based subtitle format used on DVDs
Duration : 1 h 36 min
Bit rate : 5 685 b/s
Count of elements : 967
Stream size : 3.94 MiB (0%)
Title : 1080P UNDER
Language : Thai
Default : No
Forced : No

Text #3
ID : 7
Format : VobSub
Codec ID : S_VOBSUB
Codec ID/Info : Picture based subtitle format used on DVDs
Duration : 1 h 36 min
Bit rate : 1 717 b/s
Count of elements : 967
Stream size : 1.19 MiB (0%)
Title : 480P
Language : Thai
Default : No
Forced : No

Text #4
ID : 8
Format : PGS
Codec ID : S_HDMV/PGS
Codec ID/Info : Picture based subtitle format used on BDs/HD-DVDs
Duration : 1 h 36 min
Bit rate : 28.1 kb/s
Count of elements : 2127
Stream size : 19.5 MiB (1%)
Title : BDMASTER
Language : Thai
Default : No
Forced : No

Text #5
ID : 9
Format : PGS
Codec ID : S_HDMV/PGS
Codec ID/Info : Picture based subtitle format used on BDs/HD-DVDs
Duration : 1 h 36 min
Bit rate : 23.2 kb/s
Count of elements : 1934
Stream size : 16.0 MiB (0%)
Title : BD UNDER
Language : Thai
Default : No
Forced : No

Text #6
ID : 10
Format : PGS
Codec ID : S_HDMV/PGS
Codec ID/Info : Picture based subtitle format used on BDs/HD-DVDs
Duration : 1 h 32 min
Bit rate : 38.6 kb/s
Count of elements : 2077
Stream size : 25.5 MiB (1%)
Title : BDMASTER
Language : English
Default : No
Forced : No

DOWNLOAD


PART01 |||| PART02 |||| PART03 |||| PART04

PART01 |||| PART02 |||| PART03 |||| PART04

PART01 |||| PART02 |||| PART03 |||| PART04

PART01 |||| PART02 |||| PART03 |||| PART04


Leave A Reply

Your email address will not be published.

%d bloggers like this: